[ Today is free to download without increasing Download ]

DL-List and Torrent activity
[sh]По имени Барон[/sh]
Год выпуска: 2002
Производство: Россия
Жанр: криминал, драма
Продолжительность: 12х ~ 00:48:00
Субтитры: Нет
Режиссёр: Дмитрий Светозаров
В ролях: Нодар Мгалоблишвили, Сергей Бехтерев, Лилиан Малкина, Ксения Раппопорт, Ервант Арзуманян, Игорь Лифанов, Светлана Смирнова, Михаил Девяткин, Анна Геллер, Геннадий Ткаченко-Описание: История жизни человека, родившегося в эвакуации на глазах превратившегося из скромного еврейского мальчика Иосифа в жестокого и циничного вора в законе безжалостного и к своим, и к чужим. Человек, который однажды потерял, забыл, променял свое настоящее имя став просто Бароном…- -Сэмпл: http://multi-up.com/440235-Качество: DVDRip
Формат: AVI
Видео кодек: XviD
Аудио кодек: MP3
Видео: 672x512 (1.31:1), 25 fps, XviD, 911 kbps, 0.11 bit/pixel
Аудио: 48 kHz, MPEG Layer 3, 2 ch, 128.00 kbps


D:\Раздачи на torrents.ru\Po_imeni_baron\Po_imeni_baron_01.avi
Complete name : D:\Раздачи на torrents.ru\Po_imeni_baron\Po_imeni_baron_01.avi
Format : AVI
Format/Info : Audio Video Interleave
File size : 366 MiB
Duration : 48mn 42s
Overall bit rate : 1 050 Kbps
Writing application : VirtualDubMod | www.virtualdub-fr.org || (build 2550/release)
Writing library : VirtualDubMod build 2550/release
Video #0
ID : 0
Format : MPEG-4 Visual
Format profile : Advanced Simple@L5
Format settings, BVOP : Yes
Format settings, QPel : No
Format settings, GMC : No warppoints
Format settings, Matrix : Default (MPEG)
Codec ID : XVID
Codec ID/Hint : XviD
Duration : 48mn 42s
Bit rate : 912 Kbps
Width : 672 pixels
Height : 512 pixels
Display aspect ratio : 4:3
Frame rate : 25.000 fps
Resolution : 8 bits
Colorimetry : 4:2:0
Scan type : Progressive
Bits/(Pixel*Frame) : 0.106
Stream size : 318 MiB (87%)
Writing library : XviD 58
Audio #1
ID : 1
Format : MPEG Audio
Format version : Version 1
Format profile : Layer 3
Codec ID : 55
Codec ID/Hint : MP3
Duration : 48mn 42s
Bit rate mode : Constant
Bit rate : 128 Kbps
Channel(s) : 2 channels
Sampling rate : 48.0 KHz
Stream size : 44.6 MiB (12%)
Alignment : Aligned on interleaves
Interleave, duration : 40 ms (1.00 video frame)
Interleave, preload duration : 504 ms
Writing library : LAME3.98r
Encoding settings : -m s -V 4 -q 2 -lowpass 17 -b 128


Display posts:    

Current time is: 26-Oct 08:51

All times are UTC + 3

You cannot post new topics in this forum
You cannot reply to topics in this forum
You cannot edit your posts in this forum
You cannot delete your posts in this forum
You cannot vote in polls in this forum
You cannot attach files in this forum
You cannot download files in this forum

The site does not give electronic versions of products, and is engaged only in a collecting and cataloguing of the references sent and published at a forum by our readers. If you are the legal owner of any submitted material and do not wish that the reference to it was in our catalogue, contact us and we shall immediately remove her. Files for an exchange on tracker are given by users of a site, and the administration does not bear the responsibility for their maintenance. The request to not fill in the files protected by copyrights, and also files of the illegal maintenance!