[ Сегодня идет свободное скачивание без начисления Download ]


Статистика раздачи
Нет
 
   
 
Top  
 
 
[sh]По имени Барон[/sh]
Год выпуска: 2002
Производство: Россия
Жанр: криминал, драма
Продолжительность: 12х ~ 00:48:00
Субтитры: Нет
Режиссёр: Дмитрий Светозаров
В ролях: Нодар Мгалоблишвили, Сергей Бехтерев, Лилиан Малкина, Ксения Раппопорт, Ервант Арзуманян, Игорь Лифанов, Светлана Смирнова, Михаил Девяткин, Анна Геллер, Геннадий Ткаченко-Описание: История жизни человека, родившегося в эвакуации на глазах превратившегося из скромного еврейского мальчика Иосифа в жестокого и циничного вора в законе безжалостного и к своим, и к чужим. Человек, который однажды потерял, забыл, променял свое настоящее имя став просто Бароном…- -Сэмпл: http://multi-up.com/440235-Качество: DVDRip
Формат: AVI
Видео кодек: XviD
Аудио кодек: MP3
Видео: 672x512 (1.31:1), 25 fps, XviD, 911 kbps, 0.11 bit/pixel
Аудио: 48 kHz, MPEG Layer 3, 2 ch, 128.00 kbps
-

MI

D:\Раздачи на torrents.ru\Po_imeni_baron\Po_imeni_baron_01.avi
General
Complete name : D:\Раздачи на torrents.ru\Po_imeni_baron\Po_imeni_baron_01.avi
Format : AVI
Format/Info : Audio Video Interleave
File size : 366 MiB
Duration : 48mn 42s
Overall bit rate : 1 050 Kbps
Writing application : VirtualDubMod 1.5.10.3 | www.virtualdub-fr.org || (build 2550/release)
Writing library : VirtualDubMod build 2550/release
Video #0
ID : 0
Format : MPEG-4 Visual
Format profile : Advanced Simple@L5
Format settings, BVOP : Yes
Format settings, QPel : No
Format settings, GMC : No warppoints
Format settings, Matrix : Default (MPEG)
Codec ID : XVID
Codec ID/Hint : XviD
Duration : 48mn 42s
Bit rate : 912 Kbps
Width : 672 pixels
Height : 512 pixels
Display aspect ratio : 4:3
Frame rate : 25.000 fps
Resolution : 8 bits
Colorimetry : 4:2:0
Scan type : Progressive
Bits/(Pixel*Frame) : 0.106
Stream size : 318 MiB (87%)
Writing library : XviD 58
Audio #1
ID : 1
Format : MPEG Audio
Format version : Version 1
Format profile : Layer 3
Codec ID : 55
Codec ID/Hint : MP3
Duration : 48mn 42s
Bit rate mode : Constant
Bit rate : 128 Kbps
Channel(s) : 2 channels
Sampling rate : 48.0 KHz
Stream size : 44.6 MiB (12%)
Alignment : Aligned on interleaves
Interleave, duration : 40 ms (1.00 video frame)
Interleave, preload duration : 504 ms
Writing library : LAME3.98r
Encoding settings : -m s -V 4 -q 2 -lowpass 17 -b 128

[Цитировать]



Показать сообщения:    

Текущее время: 11-Дек 16:46

Часовой пояс: UTC + 3


Вы не можете начинать темы
Вы не можете отвечать на сообщения
Вы не можете редактировать свои сообщения
Вы не можете удалять свои сообщения
Вы не можете голосовать в опросах
Вы не можете прикреплять файлы к сообщениям
Вы не можете скачивать файлы

!ВНИМАНИЕ!
Сайт не предоставляет электронные версии произведений, а занимается лишь коллекционированием и каталогизацией ссылок, присылаемых и публикуемых на форуме нашими читателями. Если вы являетесь правообладателем какого-либо представленного материала и не желаете, чтобы ссылка на него находилась в нашем каталоге, свяжитесь с нами, и мы незамедлительно удалим ее. Файлы для обмена на трекере предоставлены пользователями сайта, и администрация не несет ответственности за их содержание. Просьба не заливать файлы, защищенные авторскими правами, а также файлы нелегального содержания!