[ Сегодня идет свободное скачивание без начисления Download ]


Статистика раздачи
Нет
 
   
 
Top  
 
 
Любопытная Варвара- Жанр: детектив, комедия, мелодрама
Год выпуска: 2012
Продолжительность: 8 х 00:51:00-Режиссёр: Саша Кириенко-В ролях: Елена Яковлева, Виталий Хаев, Андрей Кузичёв, Дарья Волга, Петр Баранчеев, Людмила Артемьева, Рамиля Искандер, Виталий Альшанский, Алёна Яковлева, Инга Оболдина, Михаил Горевой, Алексей Юрченко, Софья Лукьянова, Максим Костромыкин, Дмитрий Горевой-Описание: Главная героиня истории - Варвара Ивановна Слуцкая. Бывшая учительница, ныне пенсионерка. Обожает читать детективы Агаты Кристи и всюду совать свой нос. Варвара Ивановна переезжает в квартиру к своему сыну Роману и его жене Алeне помогать с воспитанием внуков Гоши и Лизы. Поначалу отношения Варвары Ивановны с невесткой складываются не очень гладко: две хозяйки "на одной кухне" всегда сложно уживаются. К тому же у Варвары Ивановны свои взгляды и методы воспитания внуков. Однажды Варвара Ивановна возвращалась домой и обнаружила в лифте труп соседки...- -Сэмпл-Качество видео: DVDRip
Формат видео: AVI-Видео: Video: 720x400 (1.80:1), 25 fps, XviD build 50 ~1458 kbps avg, 0.20 bit/pixel
Аудио: Audio: 48 kHz, AC3 Dolby Digital, 2/0 (L,R) ch, ~192 kbps / Лицензия /
-

MediaInfo

Общее
Полное имя : C:\Users\\Videos\Ljubopytnaja.Varvara.2012.O.DVDRip.IRONCLUB\Ljubopytnaja.Varvara.2012.s1.O.DVDRip.IRONCLUB.avi
Формат : AVI
Формат/Информация : Audio Video Interleave
Размер файла : 600 Мбайт
Продолжительность : 50 м.
Общий поток : 1661 Кбит/сек
Программа кодирования : VirtualDubMod 1.5.10.2 (build 2540/release)
Библиотека кодирования : VirtualDubMod build 2540/release
Видео
Идентификатор : 0
Формат : MPEG-4 Visual
Профиль формата : Advanced Simple@L5
Параметр BVOP формата : 2
Параметр QPel формата : Нет
Параметр GMC формата : Без точки перехода
Параметр матрицы формата : Выборочная
Идентификатор кодека : XVID
Идентификатор кодека/Подсказка : XviD
Продолжительность : 50 м.
Битрейт : 1459 Кбит/сек
Ширина : 720 пикселей
Высота : 400 пикселей
Соотношение сторон : 16:9
Частота кадров : 25,000 кадров/сек
Цветовое пространство : YUV
Субдискретизация насыщенности : 4:2:0
Битовая глубина : 8 бит
Тип развёртки : Прогрессивная
Метод сжатия : С потерями
Бит/(Пиксели*Кадры) : 0.203
Размер потока : 527 Мбайт (88%)
Библиотека кодирования : XviD 1.2.1 (UTC 2008-12-04)
Аудио
Идентификатор : 1
Формат : AC-3
Формат/Информация : Audio Coding 3
Расширение режима : CM (complete main)
Параметр Endianness формата : Big
Идентификатор кодека : 2000
Продолжительность : 50 м.
Вид битрейта : Постоянный
Битрейт : 192 Кбит/сек
Каналы : 2 канала
Расположение каналов : Front: L R
Частота : 48,0 КГц
Битовая глубина : 16 бит
Метод сжатия : С потерями
Размер потока : 69,4 Мбайт (12%)
Выравнивание : Разделение по промежуткам
Продолжительность промежутка : 40 мс. (1,00 видеокадр)
Время предзагрузки промежутка : 500 мс.

Скриншот c названием фильма

Скриншоты

[Цитировать]



Показать сообщения:    

Текущее время: 10-Дек 15:47

Часовой пояс: UTC + 3


Вы не можете начинать темы
Вы не можете отвечать на сообщения
Вы не можете редактировать свои сообщения
Вы не можете удалять свои сообщения
Вы не можете голосовать в опросах
Вы не можете прикреплять файлы к сообщениям
Вы не можете скачивать файлы

!ВНИМАНИЕ!
Сайт не предоставляет электронные версии произведений, а занимается лишь коллекционированием и каталогизацией ссылок, присылаемых и публикуемых на форуме нашими читателями. Если вы являетесь правообладателем какого-либо представленного материала и не желаете, чтобы ссылка на него находилась в нашем каталоге, свяжитесь с нами, и мы незамедлительно удалим ее. Файлы для обмена на трекере предоставлены пользователями сайта, и администрация не несет ответственности за их содержание. Просьба не заливать файлы, защищенные авторскими правами, а также файлы нелегального содержания!