[ Сегодня идет свободное скачивание без начисления Download ]


Статистика раздачи
Нет
 
   
 
Top  
 
 
- - Год выпуска: 2012
Страна: США, Канада
Производство: Original Film, Rekall Productions, Total Recall
Жанр: фантастика, боевик, триллер, приключения-Режиссер: Лен Уайзман
В ролях: Он — обычный рабочий-строитель, живущий в маленькой квартирке в захудалом районе города будущего где-то в Новой Азии. Хотя собственная жизнь его в целом устраивает, он не может избавиться от чувства, что ему хочется чего-то большего. Потребность в новых будоражащих впечатлениях приводит его в офис компании «Вспомнить всё», имплантирующей в память своих клиентов воспоминания-фантазии, которые они могут получить не рискуя при этом пережить сами события в реальности. Пока герой выбирает, какие именно воспоминания ему приобрести, отряд спецназа штурмует комнату, где он находится, и уже было берет его под арест. К своему собственному удивлению, он молниеносно уничтожает весь отряд при помощи невероятных бойцовских навыков, о владении которыми он и не подозревал…-Перевод: Профессиональный (полное дублирование) -Субтитры: Отсутствуют-Описание: Колин Фаррелл, Кейт Бекинсейл, Джессика Бил, Брайан Крэнстон, Джон Чо, Билл Найи, Букем Вудбайн, Уилл Юн Ли, Милтон Барнс, Джеймс Макгоун, Майкл Терриоль, Натали Лисинска, Стивен МакДональд, Мишель Морган, Дилан Смит, Эндрю Муди, Кейтлин Вонг, Стив Байерс, Дэнни Во, Джеффри Паунсетт, Джесси Бонд, Уоррен Белль, Винсент Розер, Брукс Дарнелл, Бретт Донахью, Джеймс Доунинг, Саймон Синн, Лиза Чандлер, Миранда Джейд, Филип Моран, Клайв Эшборн, Билл Култер, Брайан Родригез- -Качество: HDRip-AVC-Продолжительность: 02:10:16-Формат: MKV
Видео кодек: AVC
Аудио кодек: MPEG Audio
Видео: 896x376 (2:40:1), 23.976 кадр/сек, AVC (х264), High@L4.1, ~676 Kbps, 0.084 bit/pixel
Аудио: 48 kHz, MPEG Layer 3, 2 ch, ~128.00 kbps avg-Премьера (мир): 2 августа 2012
Премьера (РФ): 9 августа 2012, «WDSSPR»-

Media Info

General
Unique ID                        : 183268603416193115243368420414062702985 (0x89E03FC63B58857A8FA2ACA12B01B189)
Complete name                    : E:\Фильмы\Вспомнить все.mkv
Format                           : Matroska
Format version                   : Version 2
File size                        : 739 MiB
Duration                         : 2h 10mn
Overall bit rate                 : 793 Kbps
Encoded date                     : UTC 2012-11-09 20:15:15
Writing application              : mkvmerge v4.9.1 ('Ich will') сборка от Aug 10 2011 09:31:20
Writing library                  : libebml v1.2.1 + libmatroska v1.2.0
Video
ID                               : 1
Format                           : AVC
Format/Info                      : Advanced Video Codec
Format profile                   : High@L4.1
Format settings, CABAC           : Yes
Format settings, ReFrames        : 8 frames
Codec ID                         : V_MPEG4/ISO/AVC
Duration                         : 2h 10mn
Bit rate                         : 676 Kbps
Width                            : 896 pixels
Height                           : 376 pixels
Display aspect ratio             : 2.40:1
Frame rate                       : 23.976 fps
Color space                      : YUV
Chroma subsampling               : 4:2:0
Bit depth                        : 8 bits
Scan type                        : Progressive
Bits/(Pixel*Frame)               : 0.084
Stream size                      : 616 MiB (83%)
Writing library                  : x264 core 116 r2074 2641b9e
Encoding settings                : cabac=1 / ref=8 / deblock=1:-1:-1 / analyse=0x3:0x133 / me=umh / subme=9 / psy=1 / psy_rd=1.00:0.10 / mixed_ref=1 / me_range=32 / chroma_me=1 / trellis=2 / 8x8dct=1 / cqm=0 / deadzone=21,11 / fast_pskip=0 / chroma_qp_offset=-3 / threads=6 / sliced_threads=0 / nr=0 / decimate=1 / interlaced=0 / bluray_compat=0 / constrained_intra=0 / bframes=7 / b_pyramid=2 / b_adapt=2 / b_bias=0 / direct=3 / weightb=1 / open_gop=0 / weightp=2 / keyint=250 / keyint_min=23 / scenecut=40 / intra_refresh=0 / rc_lookahead=50 / rc=2pass / mbtree=1 / bitrate=676 / ratetol=1.0 / qcomp=0.60 / qpmin=0 / qpmax=69 / qpstep=4 / cplxblur=20.0 / qblur=0.5 / ip_ratio=1.40 / aq=1:1.00
Audio
ID                               : 2
Format                           : MPEG Audio
Format version                   : Version 1
Format profile                   : Layer 3
Mode                             : Joint stereo
Mode extension                   : MS Stereo
Codec ID                         : A_MPEG/L3
Codec ID/Hint                    : MP3
Duration                         : 2h 10mn
Bit rate mode                    : Variable
Bit rate                         : 115 Kbps
Nominal bit rate                 : 128 Kbps
Channel(s)                       : 2 channels
Sampling rate                    : 48.0 KHz
Compression mode                 : Lossy
Stream size                      : 108 MiB (15%)
Writing library                  : LAME3.98r
Encoding settings                : -m j -V 4 -q 2 -lowpass 17 --abr 128
[

[Цитировать]



Показать сообщения:    

Текущее время: 10-Дек 10:01

Часовой пояс: UTC + 3


Вы не можете начинать темы
Вы не можете отвечать на сообщения
Вы не можете редактировать свои сообщения
Вы не можете удалять свои сообщения
Вы не можете голосовать в опросах
Вы не можете прикреплять файлы к сообщениям
Вы не можете скачивать файлы

!ВНИМАНИЕ!
Сайт не предоставляет электронные версии произведений, а занимается лишь коллекционированием и каталогизацией ссылок, присылаемых и публикуемых на форуме нашими читателями. Если вы являетесь правообладателем какого-либо представленного материала и не желаете, чтобы ссылка на него находилась в нашем каталоге, свяжитесь с нами, и мы незамедлительно удалим ее. Файлы для обмена на трекере предоставлены пользователями сайта, и администрация не несет ответственности за их содержание. Просьба не заливать файлы, защищенные авторскими правами, а также файлы нелегального содержания!