[ Today is free to download without increasing Download ]

DL-List and Torrent activity
• Вишенка на новогоднем торте / La cerise sur le gвteau •
Год выпуска: 2012
Страна: Франция
Производство: Maison de Cinema, Soudaine Compagnie, Nuts & Bolts Productions
Жанр: Комедия
Режиссёр: Лаура Моранте
В ролях: Лаура Моранте, Паскаль Элбе, Изабель Карре, Самир Гесми, Патрис Тибо, Фредерик Пьеро, Лусилия Клеман, Эннио Фантастичини, Ванесса Ларре, Жорж Клэсс
Перевод: Профессиональный (многоголосый, закадровый)
Субтитры: Нет
Описание: Аманда уверена — с мужчинами всегда все слишком сложно! Ее подруга считает, что Аманде пора остепениться и сделать, наконец, окончательный выбор, а психоаналитик ставит ей неутешительный диагноз: «Мадам-катастрофа», которая убивает все свои романы, едва они начинают стремиться к обручальным кольцам. Но даже женщина, которая упорно отказывается стать счастливой, не застрахована от случая. Само провидение ставит точку в ее сомнениях, словно кладет последнюю вишенку на торт. Дата премьеры (мир): 25 марта 2012
Дата премьеры (РФ): 20 декабря 2012, «Русский репортаж»
Качество: DVDRip | Сэмпл
Продолжительность: 01:19:46
Формат: AVI
Видео кодек: XviD
Аудио кодек: AC3
Видео: 720x400 (16:9), 25.000 fps, XviD build 50 ~1995 kbps avg, 0.277 bit/pixel
Аудио: 48 kHz, AC3 Dolby Digital, 3/2 (L,C,R,l,r) + LFE ch, ~448 kbps


       Format : AVI
       Format/Info : Audio Video Interleave
       File size : 1.37 GiB
       Duration : 1h 19mn
       Overall bit rate : 2 453 Kbps
       Movie name : Vishenka.na.novogodnem.torte.2012.P.DVDRip.IRONCLUB
       Director : IRONCLUB
       Genre : Comedy
       Writing application : VirtualDubMod | www.virtualdub-fr.org || (build 2550/release)
       Original source form/Name : Movie
       Copyright : http://ironclub.tv/
    Video #0
       ID : 0
       Format : MPEG-4 Visual
       Format profile : Advanced Simple@L5
       Format settings, BVOP : Yes
       Format settings, QPel : No
       Format settings, GMC : No warppoints
       Format settings, Matrix : Custom
       Codec ID : XVID
       Codec ID/Hint : XviD
       Duration : 1h 19mn
       Bit rate : 1 995 Kbps
       Width : 720 pixels
       Height : 400 pixels
       Display aspect ratio : 16:9
       Frame rate : 25.000 fps
       Color space : YUV
       Chroma subsampling : 4:2:0
       Bit depth : 8 bits
       Scan type : Progressive
       Compression mode : Lossy
       Bits/(Pixel*Frame) : 0.277
       Stream size : 1.11 GiB (81%)
       Writing library : XviD 1.2.1 (UTC 2008-12-04)
    Audio #1
       ID : 1
       Format : AC-3
       Format/Info : Audio Coding 3
       Mode extension : CM (complete main)
       Codec ID : 2000
       Duration : 1h 19mn
       Bit rate mode : Constant
       Bit rate : 448 Kbps
       Channel(s) : 6 channels
       Channel positions : Front: L C R, Side: L R, LFE
       Sampling rate : 48.0 KHz
       Bit depth : 16 bits
       Compression mode : Lossy
       Stream size : 256 MiB (18%)
       Alignment : Split accross interleaves
       Interleave, duration : 40 ms (1.00 video frame)
       Interleave, preload duration : 500 ms



Топик был перенесен из форума Новинки кинопроката в форум Комедия

Display posts:    

Current time is: 25-Oct 15:03

All times are UTC + 3

You cannot post new topics in this forum
You cannot reply to topics in this forum
You cannot edit your posts in this forum
You cannot delete your posts in this forum
You cannot vote in polls in this forum
You cannot attach files in this forum
You cannot download files in this forum

The site does not give electronic versions of products, and is engaged only in a collecting and cataloguing of the references sent and published at a forum by our readers. If you are the legal owner of any submitted material and do not wish that the reference to it was in our catalogue, contact us and we shall immediately remove her. Files for an exchange on tracker are given by users of a site, and the administration does not bear the responsibility for their maintenance. The request to not fill in the files protected by copyrights, and also files of the illegal maintenance!