[ Сегодня идет свободное скачивание без начисления Download ]


Статистика раздачи
Нет
 
   
 
Top  
 
 
Сейчас самое время / Now Is GoodСлоган "Живи. Люби. Мечтай."
Год выпуска: 2012
Страна: Великобритания
Производство: BBC Films, Blueprint Pictures, Goldcrest Pictures, Lip Sync Productions, UK Film Council
Жанр: мелодрама
Режиссёр: Ол Паркер
В ролях: Дакота Фаннинг, Джереми Ирвин, Пэдди Консидайн, Оливия Уильямс, Кая Скоделарио, Роуз Лесли, Сара Хэдлэнд, Джо Коул, Рэки Айола, Патрик Балади
Перевод: Профессиональный (дублированный)
[kp]Субтитры[/kp]: Русские [полные, UTF-8]
Описание
Тессе семнадцать, и она хочет жить нормальной жизнью. Она мечтает о тех же вещах, что и все подростки. Но что делать, если времени осталось мало? Тесса принимает решение, прожить все, что отмерено, так, чтобы ни одна минута не пропала зря.
Девушка составляет список того, что обязательно нужно успеть: потерять невинность, попробовать наркотики, прыгнуть с парашютом, по-настоящему полюбить. Она шаг за шагом воплощает свои намерения. Но внезапно вспыхнувшее чувство к соседскому парню Адаму меняет все ее планы.
СэмплДоп. информация

Премьеры

премьера (мир) 31 августа 2012
премьера (РФ) 13 декабря 2012, «Премиум Фильм»
релиз на Blu-Ray 24 января 2013, «CP Дистрибуция»
релиз на DVD 24 января 2013, «CP Дистрибуция»

Рейтинг MPAA

детям до 13 лет просмотр не желателен

Mediainfo

General
Unique ID                                : 189074762842918729470818682195086611426 (0x8E3E798921A3F3738B5960D39B4B13E2)
Complete name                            : D:Now Is Good.BDRip-AVC.2012.mkv
Format                                   : Matroska
Format version                           : Version 4 / Version 2
File size                                : 2.87 GiB
Duration                                 : 1h 42mn
Overall bit rate                         : 3 996 Kbps
Encoded date                             : UTC 2010-02-22 21:41:31
Writing application                      : mkvmerge v5.9.0 ('On The Loose') built on Dec  9 2012 15:37:01
Writing library                          : libebml v1.3.0 + libmatroska v1.4.0
Video
ID                                       : 1
Format                                   : AVC
Format/Info                              : Advanced Video Codec
Format profile                           : High@L4.1
Format settings, CABAC                   : Yes
Format settings, ReFrames                : 10 frames
Codec ID                                 : V_MPEG4/ISO/AVC
Duration                                 : 1h 42mn
Bit rate                                 : 3 548 Kbps
Width                                    : 1 152 pixels
Height                                   : 480 pixels
Display aspect ratio                     : 2.40:1
Frame rate mode                          : Constant
Frame rate                               : 24.000 fps
Color space                              : YUV
Chroma subsampling                       : 4:2:0
Bit depth                                : 8 bits
Scan type                                : Progressive
Bits/(Pixel*Frame)                       : 0.267
Stream size                              : 2.49 GiB (87%)
Writing library                          : x264 core 125 r2208 d9d2288
Encoding settings                        : cabac=1 / ref=10 / deblock=1:-3:-3 / analyse=0x3:0x113 / me=umh / subme=10 / psy=1 / psy_rd=1.00:0.05 / mixed_ref=1 / me_range=32 / chroma_me=1 / trellis=2 / 8x8dct=1 / cqm=0 / deadzone=21,11 / fast_pskip=1 / chroma_qp_offset=-3 / threads=2 / lookahead_threads=1 / sliced_threads=0 / nr=0 / decimate=1 / interlaced=0 / bluray_compat=0 / constrained_intra=0 / bframes=8 / b_pyramid=2 / b_adapt=2 / b_bias=0 / direct=3 / weightb=1 / open_gop=0 / weightp=2 / keyint=250 / keyint_min=23 / scenecut=40 / intra_refresh=0 / rc_lookahead=90 / rc=2pass / mbtree=1 / bitrate=3548 / ratetol=1.0 / qcomp=0.60 / qpmin=0 / qpmax=69 / qpstep=4 / cplxblur=20.0 / qblur=0.5 / ip_ratio=1.40 / aq=2:0.80
Default                                  : Yes
Forced                                   : No
Audio
ID                                       : 2
Format                                   : AC-3
Format/Info                              : Audio Coding 3
Mode extension                           : CM (complete main)
Format settings, Endianness              : Big
Codec ID                                 : A_AC3
Duration                                 : 1h 42mn
Bit rate mode                            : Constant
Bit rate                                 : 448 Kbps
Channel(s)                               : 6 channels
Channel positions                        : Front: L C R, Side: L R, LFE
Sampling rate                            : 48.0 KHz
Bit depth                                : 16 bits
Compression mode                         : Lossy
Stream size                              : 329 MiB (11%)
Default                                  : Yes
Forced                                   : No
Text
ID                                       : 3
Format                                   : UTF-8
Codec ID                                 : S_TEXT/UTF8
Codec ID/Info                            : UTF-8 Plain Text
Default                                  : Yes
Forced                                   : No
Тех. данные
Качество: BDRip-AVC (Исходник: Now Is Good/ BD/ 1080p)
Продолжительность: 01:42:45 час.
Формат: MKV
Видео кодек: H.264
Аудио кодек: AC3
Видео: 1152x480 (2.40:1), 24.000 fps, H.264 ~3548 kbps avg, 0.267 bit/pixel
Аудио: 48 kHz, AC3, 6 ch, Front: L C R, Side: L R, LFE ~448 kbps avg

Скриншоты

[Цитировать]

Топик был перенесен из форума Новинки кинопроката в форум Мелодрама
Henkok



Показать сообщения:    

Текущее время: 08-Дек 17:12

Часовой пояс: UTC + 3


Вы не можете начинать темы
Вы не можете отвечать на сообщения
Вы не можете редактировать свои сообщения
Вы не можете удалять свои сообщения
Вы не можете голосовать в опросах
Вы не можете прикреплять файлы к сообщениям
Вы не можете скачивать файлы

!ВНИМАНИЕ!
Сайт не предоставляет электронные версии произведений, а занимается лишь коллекционированием и каталогизацией ссылок, присылаемых и публикуемых на форуме нашими читателями. Если вы являетесь правообладателем какого-либо представленного материала и не желаете, чтобы ссылка на него находилась в нашем каталоге, свяжитесь с нами, и мы незамедлительно удалим ее. Файлы для обмена на трекере предоставлены пользователями сайта, и администрация не несет ответственности за их содержание. Просьба не заливать файлы, защищенные авторскими правами, а также файлы нелегального содержания!