[ Сегодня идет свободное скачивание без начисления Download ]


Статистика раздачи
Нет
 
   
 
Top  
 
 
-- --[sh]Чужой против Хищника / Alien vs. Predator[/sh]
(Unrated)
- -Год выпуска: 2004
Страна: Германия, США, Великобритания, Чехия
Жанр: ужасы, фантастика, боевик, триллер
Продолжительность: 01:48:40
Перевод 1: Профессиональный (полное дублирование со вставками MVO)
Перевод 2: Профессиональный (многоголосый закадровый, Киномания)
Перевод 3: Авторский (одноголосый закадровый, А.Гаврилов)
Субтитры: Русские, Английские-Режиссер: Пол У. С. Андерсон / Paul W.S. Anderson
Сценарий: Дэн О’Бэннон / Dan O'Bannon, Рональд Шусетт / Ronald Shusett, Пол У. С. Андерсон / Paul W.S. Anderson, Джим Томас / Jim Thomas, Джон Томас / John Thomas
Продюсер: Гордон Кэрролл / Gordon Carroll, Джон Дэвис / John Davis, Дэвид Гайлер / David Giler, Уолтер Хилл / Walter Hill, Тьерри Поток / Thierry Potok и еще восемь человек.
Оператор: Дэвид Джонсон / David Johnson
Композитор: Харальд Клозер / Harald Kloser
В ролях: Санаа Лэтэн (Alexa Woods), Рауль Бова (Sebastian de Rosa), Лэнс Хенриксен (Charles Bishop Weyland), Юэн Бремнер (Graeme Miller), Колин Сэлмон (Maxwell Stafford), Томми Флэнаган (Mark Verheiden), Джозеф Рай (Joe Connors), Агат Де Ла Булае (Adele Rousseau), Карстен Норгаард (Rusten Quinn), Сэм Тротон (Thomas Parks)-Описание: Наши дни. Группа ученых отправляется в Антарктиду, чтобы отыскать колыбель цивилизации, царившей на Земле многие тысячелетия назад. Под толщей льда они находят пирамиды, в которых обнаруживают человеческие скелеты и следы жизнедеятельности чужих.
Однако они еще не знают, что уже находятся под колпаком у хозяев этого города — хищников, и их дни сочтены. Человеческая приманка поможет хищникам, наконец, завершить войну двух космических цивилизаций…
-
Доп. информация: Исходник Чужой против Хищника / Alien vs. Predator (Пол У. С. Андерсон / Paul W.S. Anderson) [2004, Германия, США, Великобритания, Чехия, фантастика, боевик, триллер, Blu-ray disc 1080p (custom)] Unrated DUB (со вставками MVO) + DUB (CEE-издание) Sub rus + or-

Знаете ли Вы, что...

* Автор сценария Петер Бриггз разработал сюжет еще в 1991 году после выхода на экраны картины «Хищник 2».
* События фильма основаны на серии одноименных комиксов, до сих пор выпускающихся на территории США.
* Помимо этого в продажу были запущены линия игрушек, многочисленные видеоигры, саундтреки (к видеоиграм) и
даже столь любимые американцами коллекционные собрания карточек.
* Пол Андерсон отказался от режиссирования проектов «Смертельная битва 3» и «Обитель зла 2» в пользу этого фильма,
впрочем, кресло продюсера вышеназванных фильмов не покинул.
* По слухам, фильм находился в разработке с 1990 года, после того как в «Хищнике 2» (1990) был показан череп Чужого.
* За исключением сцен, когда мы видим трех Хищников одновременно, Йен Уайт сыграл всех Хищников.
* В рекламном ролике фильма содержатся отрывки из музыкальной темы трейлера к «Чужому» (1979), а также вопль Брета
(Гарри Дин Стэнтон).
* Титр, появляющийся в начале фильма, сообщает, что название ледокола — «The Piper Maru». Точно такое же название
корабля было в пятнадцатом эпизоде третьего сезона сериала «Секретные материалы» (1993). В свою очередь, эпизод
получил свое название по имени дочки Джилиан Андерсон.
* В 2004 году из всех крупных студийных голливудских проектов у картины Пола Андерсона были самый короткий съёмочный
период (два с половиной месяца) и самый короткий период пост-продакшна (четыре месяца).
* Лэнс Хенриксон сыграл Чарльза Бишопа Уэйланда (Charles Bishop Weyland), соучредителя корпорации «Weyland Yutani
Corporation». Это — та самая компания, упоминавшаяся во всех фильмах о Чужих. Лэнс также сыграл андроида Бишопа в
«Чужих» (1986) и Бишопа II в «Чужом 3» (1992).
* Когда Чарльз Бишоп Уэйланд сидит в своем кабинете, то мы можем заметить, что он играется с шариковой ручкой в довольно
схожей манере, как это делал андроид Бишоп с ножом в «Чужих» (1986).
* Роль Макса Стаффорда была специально написана для Колина Сэлмона.
* Шэйн Салерно на протяжении пятнадцати месяцев (на этапах пре-продакшна, съёмок и пост-продакшна) работал над
сценарием к фильму, однако, его имя отсутствует в титрах.
* На одном из этапов производства планировалось, что Питер Уэллер сыграет Джона Ютани (John Yutani), второго соучредителя
компании «Weyland-Yutani», упоминавшейся в каждом фильме о Чужих.
* ЧпХ стал первым фильмом в серии картин о Чужих и Хищниках, получивший рейтинг PG-13. Остальные фильмы выходили в
прокат с рейтингом R.
* Персонаж Томми Флэнегана (Верхейден) был назван в честь автора комиксов «Чужой против Хищника» Марка Верхейдена.
* В отличие от популярных слухов, что противостояние двух пришельцев возникло благодаря черепу Чужого в «Хищнике 2»
(1990), именно Марк впервые свел вместе представителей двух рас.
* ЧпХ стал первым фильмом в серии картин о Хищниках, где присутствует Хищник-левша.
* Изначально сцена, в которой команда Уэйланда обнаруживает комнату для жертвоприношений внутри пирамиды, была намного
длиннее: Себастиан находил окаменелого фэйсхаггера, после чего Лекс и Себастиан предлагали свои теории о том, что это за
существо.
* Создатели спецэффектов для фильма, Том Вудрафф мл. и Алек Джиллис, сыграли людей, обнаруживших пирамиду.
* В фильме содержатся ссылки и намёки на предыдущие фильмы о Чужих и Хищнике. Так, например, первый кадр картины — силуэт
королевы Чужих из фильма «Чужие» (1986), медленно превращающийся в спутник компании Weyland Corporation.
* Алтари в комнате для жертвоприношений установлены в точно таком же порядке, как и установки криогенного сна в «Чужом» (1979).
* Черно-белый фильм, который можно заметить на экране одного из телевизоров в начале картины, — «Франкенштейн встречает
Человека-волка» (1943).
* Главная героиня называет Чужого «ugly mother…». Это — ссылка на предыдущие фильмы о Хищниках, где Арнольд Шварценеггер
и Дэнни Гловер точно так же называли Хищника.
* ЧпХ стал первым фильмом о Чужих, в котором не снималась Сигурни Уивер.
* Кадр с людьми, входящих в пирамиду, — намёк на сцену из «Чужого» (1979), где в довольно схожей манере команда «Ностромо»
входила в заброшенный космический корабль.
* Рисунок на поле в центре комнаты для жертвоприношений почти точно повторяет постер для «Чужого 3» (1992).
* Слова «чужой» и «хищник» ни разу не произносятся по ходу действия фильма.
* В свое время Пол Андерсон заявил, что изначально предполагалось, что у фильма будет рейтинг R, но за три недели до выхода
картины на экраны студия решила перемонтировать фильм под рейтинг PG-13. Позднее выяснилось, что это были лишь Интернет-
слухи: по словам Пола Андерсона, зрители увидели именно ту версию фильма, которую он и хотел снять.
* Гари Бьюзи мог исполнить роль Джона Ютани.
* В трейлере фильма можно заметить планету-тюрьму «Фурию 161» из «Чужого 3» (1992).
* Код Морзе, который обнаруживает спутник в начале фильма, означает «Кто бы не победил, мы проиграем», что в точности
повторяет слоган фильма.
* По словам Пола Андерсона, Арнольд Шварценеггер согласился появиться в концовке фильма в роли Датча Шаффера (персонаж
из «Хищника» (1987)), но только если он проиграет на выборах губернатора Калифорнии.
* Полная версия фильма имеет хронометраж 108 минут.
-Качество: Blu-ray Rip 1080p
Формат: MKV
Видео: MPEG-4 AVC (H264), 1920x818, 23.976 fps, High Profile 4.1, ~16800 kbps avg, bit/(pixel*frame) 0.446
Аудио №1: Russian: 48 kHz, AC3, 3/2 (L,C,R,l,r) + LFE ch, ~768.00 kbps avg Дубляж со вставками MVO
Аудио №2: Russian: 48 kHz, AC3, 3/2 (L,C,R,l,r) + LFE ch, ~448.00 kbps avg Многоголосый закадровый, Киномания
Аудио №3: Russian: 48 kHz, AC3, 3/2 (L,C,R,l,r) + LFE ch, ~640.00 kbps avg Одноголосый закадровый, А.Гаврилов
Аудио №4: English: 48 kHz, DTS, 3/2 (L,C,R,l,r) + LFE ch, ~1536.00 kbps avg Оригинал
Аудио №5: English: 48 kHz, AC3, 2/0 (L,R) ch, ~224.00 kbps avg Commentary by P.Andreson, L.Henriksen & S.Lathan
Аудио №6: English: 48 kHz, AC3, 2/0 (L,R) ch, ~224.00 kbps avg Commentary by A.Gillis, T.Woddruff & J.Bruno
Субтитры №1: Russian (На расширенные места)
Субтитры №2: Russian
Субтитры №3: Russian (Киномания)
Субтитры №4: English
Сохранены оригинальные чаптеры-

MediaInfo

L:\Alien vs. Predator [Чужой против хищника] Unrated (2004) 1920x818 BDRip -=RbM=- RusEngSubsChpt.mkv
General
Unique ID : 248227943230790178189619065314971987899 (0xBABEF67FF89732F9A0A6E21E25BFAFBB)
Complete name : L:\Alien vs. Predator [Чужой против хищника] Unrated (2004) 1920x818 BDRip -=RbM=- RusEngSubsChpt.mkv
Format : Matroska
Format version : Version 2
File size : 16.0 GiB
Duration : 1h 48mn
Overall bit rate : 21.0 Mbps
Encoded date : UTC 2012-09-29 02:31:30
Writing application : mkvmerge v5.8.0 ('No Sleep / Pillow') built on Sep 2 2012 15:37:04
Writing library : libebml v1.2.3 + libmatroska v1.3.0
Video #1
ID : 1
Format : AVC
Format/Info : Advanced Video Codec
Format profile : [email protected]
Format settings, CABAC : Yes
Format settings, ReFrames : 5 frames
Codec ID : V_MPEG4/ISO/AVC
Duration : 1h 48mn
Bit rate : 16.8 Mbps
Width : 1 920 pixels
Height : 818 pixels
Display aspect ratio : 2.35:1
Frame rate mode : Constant
Frame rate : 23.976 fps
Color space : YUV
Chroma subsampling : 4:2:0
Bit depth : 8 bits
Scan type : Progressive
Bits/(Pixel*Frame) : 0.447
Stream size : 12.8 GiB (80%)
Title : 54% of the original
Writing library : x264 core 128 r2216kMod 198a7ea
Encoding settings : cabac=1 / ref=5 / deblock=1:-3:-3 / analyse=0x3:0x133 / me=umh / subme=11 / psy=1 / fade_compensate=0.00 / psy_rd=1.20:0.20 / mixed_ref=1 / me_range=64 / chroma_me=1 / trellis=2 / 8x8dct=1 / cqm=0 / deadzone=21,11 / fast_pskip=0 / chroma_qp_offset=-3 / threads=12 / lookahead_threads=2 / sliced_threads=0 / nr=0 / decimate=1 / interlaced=0 / bluray_compat=0 / constrained_intra=0 / bframes=14 / b_pyramid=2 / b_adapt=2 / b_bias=0 / direct=3 / weightb=1 / open_gop=0 / weightp=2 / keyint=240 / keyint_min=23 / scenecut=40 / intra_refresh=0 / rc=crf / mbtree=0 / crf=17.5000 / qcomp=0.70 / qpmin=0 / qpmax=69 / qpstep=4 / ip_ratio=1.30 / pb_ratio=1.20 / aq=3:0.60
Language : English
Default : Yes
Forced : No
Color primaries : BT.709
Transfer characteristics : BT.709
Matrix coefficients : BT.709
Audio #2
ID : 2
Format : DTS
Format/Info : Digital Theater Systems
Codec ID : A_DTS
Duration : 1h 48mn
Bit rate mode : Constant
Bit rate : 755 Kbps
Channel(s) : 6 channels
Channel positions : Front: L C R, Side: L R, LFE
Sampling rate : 48.0 KHz
Bit depth : 24 bits
Compression mode : Lossy
Stream size : 586 MiB (4%)
Title : Dub+MVO DTS 6ch 768kbps (CEE)
Language : Russian
Default : Yes
Forced : No
Audio #3
ID : 3
Format : AC-3
Format/Info : Audio Coding 3
Mode extension : CM (complete main)
Format settings, Endianness : Big
Codec ID : A_AC3
Duration : 1h 48mn
Bit rate mode : Constant
Bit rate : 448 Kbps
Channel(s) : 6 channels
Channel positions : Front: L C R, Side: L R, LFE
Sampling rate : 48.0 KHz
Bit depth : 16 bits
Compression mode : Lossy
Stream size : 348 MiB (2%)
Title : MVO AC3 6ch 448kbps (Киномания)
Language : Russian
Default : No
Forced : No
Audio #4
ID : 4
Format : AC-3
Format/Info : Audio Coding 3
Mode extension : CM (complete main)
Format settings, Endianness : Big
Codec ID : A_AC3
Duration : 1h 48mn
Bit rate mode : Constant
Bit rate : 640 Kbps
Channel(s) : 6 channels
Channel positions : Front: L C R, Side: L R, LFE
Sampling rate : 48.0 KHz
Bit depth : 16 bits
Compression mode : Lossy
Stream size : 497 MiB (3%)
Title : AVO AC3 6ch 640kbps (А.Гаврилов)
Language : Russian
Default : No
Forced : No
Audio #5
ID : 5
Format : DTS
Format/Info : Digital Theater Systems
Codec ID : A_DTS
Duration : 1h 48mn
Bit rate mode : Constant
Bit rate : 1 510 Kbps
Channel(s) : 6 channels
Channel positions : Front: L C R, Side: L R, LFE
Sampling rate : 48.0 KHz
Bit depth : 24 bits
Compression mode : Lossy
Stream size : 1.15 GiB (7%)
Title : Original DTS 6ch 1510kbps
Language : English
Default : No
Forced : No
Audio #6
ID : 6
Format : AC-3
Format/Info : Audio Coding 3
Mode extension : CM (complete main)
Format settings, Endianness : Big
Codec ID : A_AC3
Duration : 1h 48mn
Bit rate mode : Constant
Bit rate : 224 Kbps
Channel(s) : 2 channels
Channel positions : Front: L R
Sampling rate : 48.0 KHz
Bit depth : 16 bits
Compression mode : Lossy
Stream size : 174 MiB (1%)
Title : AC3 2ch 224kbps (Commentary by P.Andreson, L.Henriksen & S.Lathan)
Language : English
Default : No
Forced : No
Audio #7
ID : 7
Format : AC-3
Format/Info : Audio Coding 3
Format profile : Dolby Digital
Mode extension : CM (complete main)
Format settings, Endianness : Big
Codec ID : A_AC3
Duration : 1h 48mn
Bit rate mode : Constant
Bit rate : 224 Kbps
Channel(s) : 2 channels
Channel positions : Front: L R
Sampling rate : 48.0 KHz
Bit depth : 16 bits
Compression mode : Lossy
Stream size : 174 MiB (1%)
Title : AC3 2ch 224kbps (Commentary by A.Gillis, T.Woddruff & J.Bruno)
Language : English
Default : No
Forced : No
Text #8
ID : 8
Format : UTF-8
Codec ID : S_TEXT/UTF8
Codec ID/Info : UTF-8 Plain Text
Title : forced
Language : Russian
Default : Yes
Forced : No
Text #9
ID : 9
Format : UTF-8
Codec ID : S_TEXT/UTF8
Codec ID/Info : UTF-8 Plain Text
Language : Russian
Default : No
Forced : No
Text #10
ID : 10
Format : UTF-8
Codec ID : S_TEXT/UTF8
Codec ID/Info : UTF-8 Plain Text
Title : Киномания
Language : Russian
Default : No
Forced : No
Text #11
ID : 11
Format : UTF-8
Codec ID : S_TEXT/UTF8
Codec ID/Info : UTF-8 Plain Text
Language : English
Default : No
Forced : No
Menu
00:00:00.000 : en:00:00:00.000
00:02:18.347 : en:00:02:18.347
00:04:06.204 : en:00:04:06.204
00:08:36.141 : en:00:08:36.141
00:12:59.654 : en:00:12:59.654
00:15:41.607 : en:00:15:41.607
00:19:06.437 : en:00:19:06.437
00:23:22.109 : en:00:23:22.109
00:26:21.705 : en:00:26:21.705
00:28:43.889 : en:00:28:43.889
00:30:39.421 : en:00:30:39.421
00:33:35.805 : en:00:33:35.805
00:35:48.897 : en:00:35:48.897
00:41:39.956 : en:00:41:39.956
00:44:34.005 : en:00:44:34.005
00:49:33.012 : en:00:49:33.012
00:53:54.815 : en:00:53:54.815
00:57:45.378 : en:00:57:45.378
01:03:10.328 : en:01:03:10.328
01:05:25.922 : en:01:05:25.922
01:08:36.153 : en:01:08:36.153
01:11:59.648 : en:01:11:59.648
01:13:36.996 : en:01:13:36.996
01:15:41.704 : en:01:15:41.704
01:18:50.517 : en:01:18:50.517
01:21:48.612 : en:01:21:48.612
01:24:44.955 : en:01:24:44.955
01:28:21.546 : en:01:28:21.546
01:29:41.292 : en:01:29:41.292
01:33:16.591 : en:01:33:16.591
01:36:01.589 : en:01:36:01.589
01:36:35.623 : en
:01:36:35.623

x264 log

x264 [info]: frame I:903 Avg QP:15.49 size:177145 PSNR Mean Y:49.66 U:52.89 V:54.20 Avg:50.58 Global:49.93
x264 [info]: frame P:32681 Avg QP:16.46 size:119530 PSNR Mean Y:48.74 U:52.09 V:53.57 Avg:49.69 Global:49.07
x264 [info]: frame B:122754 Avg QP:17.96 size: 81269 PSNR Mean Y:47.46 U:51.01 V:52.70 Avg:48.44 Global:47.70
x264 [info]: consecutive B-frames: 2.1% 2.6% 6.6% 15.3% 15.5% 44.2% 5.0% 2.0% 1.4% 1.5% 1.3% 1.0% 0.6% 0.4% 0.4%
x264 [info]: mb I I16..4: 17.3% 73.3% 9.4%
x264 [info]: mb P I16..4: 5.1% 52.3% 3.6% P16..4: 10.7% 13.1% 4.9% 1.1% 0.1% skip: 9.1%
x264 [info]: mb B I16..4: 1.3% 22.6% 0.9% B16..8: 23.7% 20.6% 4.6% direct:12.8% skip:13.6% L0:40.6% L1:34.3% BI:25.1%
x264 [info]: 8x8 transform intra:88.9% inter:32.2%
x264 [info]: direct mvs spatial:100.0% temporal:0.0%
x264 [info]: coded y,uvDC,uvAC intra: 96.8% 90.5% 70.0% inter: 59.5% 46.8% 8.7%
x264 [info]: i16 v,h,dc,p: 11% 7% 29% 53%
x264 [info]: i8 v,h,dc,ddl,ddr,vr,hd,vl,hu: 10% 10% 17% 9% 10% 9% 10% 11% 14%
x264 [info]: i4 v,h,dc,ddl,ddr,vr,hd,vl,hu: 24% 7% 8% 8% 11% 10% 11% 9% 11%
x264 [info]: i8c dc,h,v,p: 47% 24% 19% 11%
x264 [info]: Weighted P-Frames: Y:23.0% UV:15.2%
x264 [info]: ref P L0: 42.0% 8.5% 25.3% 12.5% 9.9% 1.7% 0.2%
x264 [info]: ref B L0: 70.0% 21.9% 6.7% 1.4%
x264 [info]: ref B L1: 88.0% 12.0%
x264 [info]: SSIM Mean Y:0.9852581 (18.314db)
x264 [info]: PSNR Mean Y:47.741 U:51.246 V:52.893 Avg:48.713 Global:47.967 kb/s:17228.44
x264 [info]: encoded 156338 frames, 2.67 fps, 17228.44 kb/s, duration 16:14:59.23
-
[sh]Чужие против Хищника: Реквием / Aliens vs Predator - Requiem[/sh]
(Unrated)
- -Год выпуска: 2007
Страна: США
Жанр: боевик, ужасы, фантастика
Продолжительность: 01:41:05
Перевод 1: Профессиональный (полное дублирование)
Перевод 2: Профессиональный (многоголосый закадровый, Киномания)
Перевод 3: Профессиональный (многоголосый закадровый, Кравец)
Перевод 4: Авторский (одноголосый закадровый, Ю.Немахов)
Субтитры: Русские, Английские-Режиссер: Колин Штраус / Colin Strause, Грег Штраус / Greg Strause
Сценарий: Шэйн Салерно / Shane Salerno, Дэн О’Бэннон / Dan O'Bannon, Рональд Шусетт / Ronald Shusett, Джим Томас / Jim Thomas, Джон Томас / John Thomas
Продюсер: Робби Бреннер / Robbie Brenner, Джон Дэвис / John Davis, Пол Дисон / Paul Deason, Дэвид Гайлер / David Giler, Уолтер Хилл / Walter Hill
Оператор: Дэниэл Перл / Daniel Pearl
Композитор: Брайан Тайлер / Brian Tyler
В ролях: Стивен Паскуале (Dallas), Рейко Эйлсворт (Kelly), Джон Ортиз (Morales), Джонни Льюис (Ricky), Эриель Гейд (Molly), Кристен Хагер (Jesse), Сэм Траммелл (Tim), Роберт Джой (Col. Stevens), Дэвид Петкау (Dale), Том Вудрафф мл. (Alien), Йен Уайт (Predator), Чела Хорсдэл (Darcy)-Описание: Атакованный «Предалиеном», жутким гибридом Хищника и Чужого, корабль Хищников терпит крушение в лесах, окружающих маленький техасский городок. И пока на сигнал о помощи, посланный в момент падения, спешит подкрепление, Чужие успевают инфицировать половину населения города.-
Доп. информация: Исходник Чужие против Хищника: Реквием / Aliens vs. Predator Requiem [Extreme Unrated] (Колин Штраус, Грег Штраус) [1080p] [2007 г., ужасы, фантастика, боевик, BD-remux]-

Знаете ли Вы, что...

* Съёмки проходили с 25 сентября 2006 года в Канаде.
* Слоган «На Земле каждый услышит твой крик» планировался для третьего чужого ещё тогда, когда в третьем чужом предполагались сцены на Земле.
* Автор и дизайнер фантастических существ - Алек Джиллис, который вместе с партнером Томом Вудраффом-мл. работал над несколькими предыдущими фильмами франчайза.
* Хищник был прозван Волком создателями фильма, в честь героя Уинстона Вулфи из фильма «Криминальное чтиво» (1994 год). Его роль в фильме, как и Вулфи, описана как «чистильщика», который вычищает всё после убийств, несчастных случаев и других грязных ситуаций.* Персонаж Ютани (компании «Вейланд-Ютани» из серии фильмов про Чужих) первоначально должен был появиться в первой части «Чужой против Хищника», но был вырезан из сценария.
* В этом фильме впервые за всю историю фильмов про Хищника показана родная планета Хищников.
-Качество: Blu-ray Rip 1080p
Формат: MKV
Видео: MPEG-4 AVC (H264), 1920x800, 23.976 fps, High Profile 4.1, ~14400 kbps avg, bit/(pixel*frame) 0.394
Аудио №1: Russian: 48 kHz, AC3, 3/2 (L,C,R,l,r) + LFE ch, ~384.00 kbps avg Дубляж
Аудио №2: Russian: 48 kHz, AC3, 3/2 (L,C,R,l,r) + LFE ch, ~448.00 kbps avg Многоголосый закадровый, Киномания
Аудио №3: Russian: 48 kHz, AC3, 3/2 (L,C,R,l,r) + LFE ch, ~448.00 kbps avg Многоголосый закадровый, Кравец
Аудио №4: Russian: 48 kHz, AC3, 3/2 (L,C,R,l,r) + LFE ch, ~448.00 kbps avg Одноголосый закадровый, Ю.Немахов
Аудио №5: English: 48 kHz, DTS, 3/2 (L,C,R,l,r) + LFE ch, ~1536.00 kbps avg Оригинал
Субтитры №1: Russian
Субтитры №2: English
Сохранены оригинальные чаптеры-

MediaInfo

L:\movie HD VII\Aliens vs Predator - Requiem [Чужой против Хищника] (2007) 1920x800 BDRip -=RbM=- RusEngSubsChpt.mkv
General
Unique ID : 249719409385467006494971595765254204915 (0xBBDE35756CDAE2FD8713A27F7AF82DF3)
Complete name : L:\movie HD VII\Aliens vs Predator - Requiem [Чужой против Хищника] (2007) 1920x800 BDRip -=RbM=- RusEngSubsChpt.mkv
Format : Matroska
Format version : Version 2
File size : 12.7 GiB
Duration : 1h 41mn
Overall bit rate : 18.0 Mbps
Movie name : -=RbM=-
Encoded date : UTC 2012-09-25 11:46:19
Writing application : mkvmerge v5.8.0 ('No Sleep / Pillow') built on Sep 2 2012 15:37:04
Writing library : libebml v1.2.3 + libmatroska v1.3.0
Attachment : Yes / Yes
Video #1
ID : 1
Format : AVC
Format/Info : Advanced Video Codec
Format profile : [email protected]
Format settings, CABAC : Yes
Format settings, ReFrames : 5 frames
Codec ID : V_MPEG4/ISO/AVC
Bit rate : 14.4 Mbps
Width : 1 920 pixels
Height : 800 pixels
Display aspect ratio : 2.40:1
Frame rate mode : Variable
Original frame rate : 23.976 fps
Color space : YUV
Chroma subsampling : 4:2:0
Bit depth : 8 bits
Scan type : Progressive
Title : 54% of the original
Writing library : x264 core 128 r2216kMod 198a7ea
Encoding settings : cabac=1 / ref=5 / deblock=1:-3:-3 / analyse=0x3:0x133 / me=umh / subme=11 / psy=1 / fade_compensate=0.00 / psy_rd=1.30:0.25 / mixed_ref=1 / me_range=64 / chroma_me=1 / trellis=2 / 8x8dct=1 / cqm=0 / deadzone=21,11 / fast_pskip=0 / chroma_qp_offset=-4 / threads=12 / lookahead_threads=2 / sliced_threads=0 / nr=0 / decimate=1 / interlaced=0 / bluray_compat=0 / constrained_intra=0 / bframes=12 / b_pyramid=2 / b_adapt=2 / b_bias=0 / direct=3 / weightb=1 / open_gop=0 / weightp=2 / keyint=240 / keyint_min=23 / scenecut=40 / intra_refresh=0 / rc=crf / mbtree=0 / crf=18.0000 / qcomp=0.70 / qpmin=0 / qpmax=69 / qpstep=4 / ip_ratio=1.30 / pb_ratio=1.20 / aq=3:0.60
Language : English
Default : Yes
Forced : No
Color primaries : BT.709
Transfer characteristics : BT.709
Matrix coefficients : BT.709
Audio #2
ID : 2
Format : AC-3
Format/Info : Audio Coding 3
Mode extension : CM (complete main)
Format settings, Endianness : Big
Codec ID : A_AC3
Duration : 1h 41mn
Bit rate mode : Constant
Bit rate : 384 Kbps
Channel(s) : 6 channels
Channel positions : Front: L C R, Side: L R, LFE
Sampling rate : 48.0 KHz
Bit depth : 16 bits
Compression mode : Lossy
Stream size : 278 MiB (2%)
Title : Dub AC3 6ch 384kbps
Language : Russian
Default : Yes
Forced : No
Audio #3
ID : 3
Format : AC-3
Format/Info : Audio Coding 3
Mode extension : CM (complete main)
Format settings, Endianness : Big
Codec ID : A_AC3
Duration : 1h 41mn
Bit rate mode : Constant
Bit rate : 448 Kbps
Channel(s) : 6 channels
Channel positions : Front: L C R, Side: L R, LFE
Sampling rate : 48.0 KHz
Bit depth : 16 bits
Compression mode : Lossy
Stream size : 324 MiB (2%)
Title : MVO AC3 6ch 448kbps (Киномания)
Language : Russian
Default : No
Forced : No
Audio #4
ID : 4
Format : AC-3
Format/Info : Audio Coding 3
Mode extension : CM (complete main)
Format settings, Endianness : Big
Codec ID : A_AC3
Duration : 1h 41mn
Bit rate mode : Constant
Bit rate : 448 Kbps
Channel(s) : 6 channels
Channel positions : Front: L C R, Side: L R, LFE
Sampling rate : 48.0 KHz
Bit depth : 16 bits
Compression mode : Lossy
Stream size : 324 MiB (2%)
Title : MVO AC3 6ch 448kbps (Кравец)
Language : Russian
Default : No
Forced : No
Audio #5
ID : 5
Format : AC-3
Format/Info : Audio Coding 3
Mode extension : CM (complete main)
Format settings, Endianness : Big
Codec ID : A_AC3
Duration : 1h 41mn
Bit rate mode : Constant
Bit rate : 448 Kbps
Channel(s) : 6 channels
Channel positions : Front: L C R, Side: L R, LFE
Sampling rate : 48.0 KHz
Bit depth : 16 bits
Compression mode : Lossy
Stream size : 324 MiB (2%)
Title : AVO AC3 6ch 448kbps (Ю.Немахов)
Language : Russian
Default : No
Forced : No
Audio #6
ID : 6
Format : DTS
Format/Info : Digital Theater Systems
Codec ID : A_DTS
Duration : 1h 41mn
Bit rate mode : Constant
Bit rate : 1 510 Kbps
Channel(s) : 6 channels
Channel positions : Front: L C R, Side: L R, LFE
Sampling rate : 48.0 KHz
Bit depth : 24 bits
Compression mode : Lossy
Stream size : 1.07 GiB (8%)
Title : Original DTS 6ch 1510kbps
Language : English
Default : No
Forced : No
Text #7
ID : 7
Format : UTF-8
Codec ID : S_TEXT/UTF8
Codec ID/Info : UTF-8 Plain Text
Language : Russian
Default : No
Forced : No
Text #8
ID : 8
Format : UTF-8
Codec ID : S_TEXT/UTF8
Codec ID/Info : UTF-8 Plain Text
Language : English
Default : No
Forced : No
Menu
00:00:00.000 : en:Main Titles/Crash Landing
00:03:44.433 : en:Unsuspecting Victims
00:05:57.023 : en:Distress Call
00:06:51.828 : en:Old Friends
00:08:44.190 : en:Pizza Delivery
00:13:27.306 : en:Alien Advance
00:15:19.794 : en:Homecoming
00:19:29.251 : en:Predator Warrior
00:24:27.674 : en:Strange Discoveries
00:29:51.498 : en:The Search
00:33:27.422 : en:Another Victim
00:38:34.270 : en:An Invitation
00:39:59.355 : en:Epic Battle
00:42:41.934 : en:Advancing Terror
00:45:33.564 : en:The Battle Continues
00:50:05.711 : en:Hunting
00:53:40.217 : en:Widening Crisis
00:59:39.910 : en:Preparing For Battle
01:04:57.727 : en:The Enemy Multiplies
01:06:52.759 : en:No Refuge
01:09:24.243 : en:Escape Attempt
01:12:09.742 : en:Choosing Sides
01:16:36.967 : en:Grim Discovery
01:19:14.374 : en:Collateral Damage
01:23:19.661 : en:Dodging Death
01:28:44.194 : en:Annihilation
01:31:31.861 : en:Survival
01:34:05.598 : en:Classified Material/End Titles

x264 log

x264 [info]: frame I:839 Avg QP:14.02 size:211558 PSNR Mean Y:51.60 U:54.54 V:54.68 Avg:52.36 Global:51.35
x264 [info]: frame P:36091 Avg QP:15.04 size:110253 PSNR Mean Y:50.22 U:52.99 V:53.17 Avg:50.94 Global:49.91
x264 [info]: frame B:108485 Avg QP:16.99 size: 65085 PSNR Mean Y:49.14 U:52.21 V:52.40 Avg:49.90 Global:48.49
x264 [info]: consecutive B-frames: 3.5% 5.1% 12.0% 20.6% 28.3% 18.1% 6.0% 1.8% 1.6% 1.5% 0.4% 0.2% 0.9%
x264 [info]: mb I I16..4: 11.5% 80.0% 8.6%
x264 [info]: mb P I16..4: 2.6% 31.4% 1.3% P16..4: 20.7% 23.6% 7.7% 1.8% 0.1% skip:10.6%
x264 [info]: mb B I16..4: 0.7% 11.8% 0.3% B16..8: 32.8% 18.5% 3.3% direct: 8.0% skip:24.6% L0:42.4% L1:39.2% BI:18.4%
x264 [info]: 8x8 transform intra:90.2% inter:46.3%
x264 [info]: direct mvs spatial:99.9% temporal:0.1%
x264 [info]: coded y,uvDC,uvAC intra: 91.1% 95.8% 91.3% inter: 28.0% 40.1% 19.0%
x264 [info]: i16 v,h,dc,p: 39% 10% 12% 38%
x264 [info]: i8 v,h,dc,ddl,ddr,vr,hd,vl,hu: 11% 8% 25% 8% 8% 9% 8% 10% 12%
x264 [info]: i4 v,h,dc,ddl,ddr,vr,hd,vl,hu: 11% 7% 9% 10% 14% 14% 12% 12% 12%
x264 [info]: i8c dc,h,v,p: 70% 10% 9% 11%
x264 [info]: Weighted P-Frames: Y:19.0% UV:14.2%
x264 [info]: ref P L0: 46.6% 3.6% 25.8% 11.1% 9.9% 2.6% 0.4%
x264 [info]: ref B L0: 73.6% 19.4% 5.4% 1.6%
x264 [info]: ref B L1: 90.2% 9.8%
x264 [info]: SSIM Mean Y:0.9881362 (19.258db)
x264 [info]: PSNR Mean Y:49.420 U:52.417 V:52.604 Avg:50.174 Global:48.812 kb/s:14796.22
x264 [info]: encoded 145415 frames, 4.73 fps, 14796.22 kb/s, duration 8:32:38.98
--

[Цитировать]



Показать сообщения:    

Текущее время: 06-Дек 19:06

Часовой пояс: UTC + 3


Вы не можете начинать темы
Вы не можете отвечать на сообщения
Вы не можете редактировать свои сообщения
Вы не можете удалять свои сообщения
Вы не можете голосовать в опросах
Вы не можете прикреплять файлы к сообщениям
Вы не можете скачивать файлы

!ВНИМАНИЕ!
Сайт не предоставляет электронные версии произведений, а занимается лишь коллекционированием и каталогизацией ссылок, присылаемых и публикуемых на форуме нашими читателями. Если вы являетесь правообладателем какого-либо представленного материала и не желаете, чтобы ссылка на него находилась в нашем каталоге, свяжитесь с нами, и мы незамедлительно удалим ее. Файлы для обмена на трекере предоставлены пользователями сайта, и администрация не несет ответственности за их содержание. Просьба не заливать файлы, защищенные авторскими правами, а также файлы нелегального содержания!