[ Сегодня идет свободное скачивание без начисления Download ]


Статистика раздачи
Нет
 
   
 
Top  
 
 
Тонкая красная линия / The Thin Red Line- Год выпуска: 1998
Страна: США
Жанр: драма, военный
Продолжительность: 02:50:47
Перевод 1: Профессиональный (полное дублирование)
Перевод 2: Профессиональный (многоголосый, закадровый) R5
Перевод 3: Профессиональный (многоголосый, закадровый) Киномания
Перевод 4: Профессиональный (многоголосый, закадровый) Позитив-Мультимедиа
Перевод 5: Профессиональный (многоголосый, закадровый) ОРТ
Перевод 6: Профессиональный (многоголосый, закадровый) Карусель
Перевод 7: Авторский одноголосый Ю.Живов
Оригинальная звуковая дорожка: English
Cубтитры: Russian (R5), Russian (Киномания), Ukrainian, English, English(SDH)-Режиссер: Терренс Малик / Terrence Malick
В ролях: Кирк Асеведо, Шон Пенн, Пенелопа Аллен, Эдриан Броуди, Джеймс Кэвизел, Бенжамин Грин, Саймон Биллиг, Бен Чаплин, Марк Бун Джуниор,Джордж Клуни, Джон Кьюсак, Вуди Харрельсон, Ник Нолти, Джон Си Райли, Джон Траволта
Описание: Фильм рассказывает о нескольких месяцах жизни армейского подразделения, в том числе об участии этого подразделения в одной из решающих и сложных операций XX-го века - битве за Гвадалканал. Американские пехотинцы посланы на подмогу морским подразделениям, измотанным схваткой с японцами.
В центре фильма - судьба стрелкового батальона: неожиданно спокойная высадка, кровавые бои и трагическое отступление тех, кому удалось выжить.- -Релиз:
Формат: MKV
Видео: 1920x820 at 23.976 fps, [email protected], ~15808 kbps avg
Аудио #1: Russian: 48 kHz, DTS, 3/2 (L,C,R,l,r) + LFE ch, ~768.00 kbps avg |Дубляж|
Аудио #2: Russian: 48 kHz, DTS, 3/2 (L,C,R,l,r) + LFE ch, ~768.00 kbps avg |Многоголосый закадровый, R5|
Аудио #3: Russian: 48 kHz, AC3, 3/2 (L,C,R,l,r) + LFE ch, ~384 kbps avg |Многоголосый закадровый, Киномания|
Аудио #4: Russian: 48 kHz, AC3, 3/2 (L,C,R,l,r) + LFE ch, ~448 kbps avg |Многоголосый закадровый, Позитив-Мультимедиа|
Аудио #5: Russian: 48 kHz, AC3, 1/0 (C) ch, ~96.00 kbps avg |Многоголосый закадровый, ОРТ|
Аудио #6: Russian: 48 kHz, DTS, 3/2 (L,C,R,l,r) + LFE ch, ~768.00 kbps avg |Многоголосый закадровый, Карусель|
Аудио #7: Russian: 48 kHz, DTS, 3/2 (L,C,R,l,r) + LFE ch, ~768.00 kbps avg |Одноголосый, закадровый, Ю.Живов|
Аудио #8: English: 48 kHz, DTS, 3/2 (L,C,R,l,r) + LFE ch, ~768.00 kbps avg |Original|
Семпл-

-

MediaInfo


Формат : Matroska
Версия формата : Version 4 / Version 2
Размер файла : 24,5 Гбайт
Продолжительность : 2 ч. 50 м.
Общий поток : 20,5 Мбит/сек
Дата кодирования : UTC 2013-02-24 05:46:32
Программа кодирования : mkvmerge v6.0.0 ('Coming Up For Air') built on Jan 20 2013 09:52:00
Библиотека кодирования : libebml v1.3.0 + libmatroska v1.4.0
Видео
Идентификатор : 1
Формат : AVC
Формат/Информация : Advanced Video Codec
Профиль формата : [email protected]
Параметр CABAC формата : Да
Параметр ReFrames формата : 5 кадров
Идентификатор кодека : V_MPEG4/ISO/AVC
Продолжительность : 2 ч. 50 м.
Битрейт : 15,4 Мбит/сек
Ширина : 1920 пикселей
Высота : 820 пикселей
Соотношение сторон : 2,35:1
Частота кадров : 23,976 кадра/сек
Цветовое пространство : YUV
Субдискретизация насыщенности : 4:2:0
Битовая глубина : 8 бит
Тип развёртки : Прогрессивная
Бит/(Пиксели*Кадры) : 0.408
Размер потока : 18,4 Гбайт (75%)
Библиотека кодирования : x264 core 129 r2245kMod bc13772
Настройки программы : cabac=1 / ref=5 / deblock=1:-3:-3 / analyse=0x3:0x113 / me=umh / subme=11 / psy=1 / fade_compensate=0.00 / psy_rd=1.00:0.02 / mixed_ref=1 / me_range=32 / chroma_me=1 / trellis=2 / 8x8dct=1 / cqm=0 / deadzone=21,11 / fast_pskip=1 / chroma_qp_offset=-3 / threads=6 / lookahead_threads=1 / sliced_threads=0 / nr=0 / decimate=1 / interlaced=0 / bluray_compat=0 / constrained_intra=0 / bframes=9 / b_pyramid=2 / b_adapt=2 / b_bias=0 / direct=3 / weightb=1 / open_gop=0 / weightp=2 / keyint=250 / keyint_min=23 / scenecut=40 / intra_refresh=0 / rc_lookahead=40 / rc=crf / mbtree=0 / crf=17.3000 / qcomp=0.75 / qpmin=0 / qpmax=69 / qpstep=4 / vbv_maxrate=50000 / vbv_bufsize=50000 / crf_max=0.0 / nal_hrd=none / ip_ratio=1.40 / pb_ratio=1.30 / aq=1:0.80
Язык : English
Коэффициенты матрицы : BT.709-5, BT.1361, IEC 61966-2-4 709, SMPTE RP177
Аудио #1
Идентификатор : 2
Формат : DTS
Формат/Информация : Digital Theater Systems
Идентификатор кодека : A_DTS
Продолжительность : 2 ч. 50 м.
Вид битрейта : Постоянный
Битрейт : 755 Кбит/сек
Каналы : 6 каналов
Расположение каналов : Front: L C R, Side: L R, LFE
Частота : 48,0 КГц
Битовая глубина : 24 бит
Метод сжатия : С потерями
Задержка видео : 9 с. 824 мс.
Размер потока : 922 Мбайт (4%)
Заголовок : Дуляж
Язык : Russian
Аудио #2
Идентификатор : 3
Формат : DTS
Формат/Информация : Digital Theater Systems
Идентификатор кодека : A_DTS
Продолжительность : 2 ч. 50 м.
Вид битрейта : Постоянный
Битрейт : 755 Кбит/сек
Каналы : 6 каналов
Расположение каналов : Front: L C R, Side: L R, LFE
Частота : 48,0 КГц
Битовая глубина : 24 бит
Метод сжатия : С потерями
Размер потока : 922 Мбайт (4%)
Заголовок : MVO.R5
Язык : Russian
Аудио #3
Идентификатор : 4
Формат : AC-3
Формат/Информация : Audio Coding 3
Расширение режима : CM (complete main)
Идентификатор кодека : A_AC3
Продолжительность : 2 ч. 50 м.
Вид битрейта : Постоянный
Битрейт : 384 Кбит/сек
Каналы : 6 каналов
Расположение каналов : Front: L C R, Side: L R, LFE
Частота : 48,0 КГц
Битовая глубина : 16 бит
Метод сжатия : С потерями
Размер потока : 469 Мбайт (2%)
Заголовок : MVO.Киномания
Язык : Russian
Аудио #4
Идентификатор : 5
Формат : AC-3
Формат/Информация : Audio Coding 3
Расширение режима : CM (complete main)
Идентификатор кодека : A_AC3
Продолжительность : 2 ч. 50 м.
Вид битрейта : Постоянный
Битрейт : 448 Кбит/сек
Каналы : 6 каналов
Расположение каналов : Front: L C R, Side: L R, LFE
Частота : 48,0 КГц
Битовая глубина : 16 бит
Метод сжатия : С потерями
Размер потока : 547 Мбайт (2%)
Заголовок : MVO. Позитив-Мультимедиа
Язык : Russian
Аудио #5
Идентификатор : 6
Формат : AC-3
Формат/Информация : Audio Coding 3
Расширение режима : CM (complete main)
Идентификатор кодека : A_AC3
Продолжительность : 2 ч. 50 м.
Вид битрейта : Постоянный
Битрейт : 96,0 Кбит/сек
Каналы : 1 канал
Расположение каналов : Front: C
Частота : 48,0 КГц
Битовая глубина : 16 бит
Метод сжатия : С потерями
Размер потока : 117 Мбайт (0%)
Заголовок : MVO. ОРТ
Язык : Russian
Аудио #6
Идентификатор : 7
Формат : DTS
Формат/Информация : Digital Theater Systems
Идентификатор кодека : A_DTS
Продолжительность : 2 ч. 50 м.
Вид битрейта : Постоянный
Битрейт : 755 Кбит/сек
Каналы : 6 каналов
Расположение каналов : Front: L C R, Side: L R, LFE
Частота : 48,0 КГц
Битовая глубина : 24 бит
Метод сжатия : С потерями
Размер потока : 922 Мбайт (4%)
Заголовок : MVO. Карусель
Язык : Russian
Аудио #7
Идентификатор : 8
Формат : DTS
Формат/Информация : Digital Theater Systems
Идентификатор кодека : A_DTS
Продолжительность : 2 ч. 50 м.
Вид битрейта : Постоянный
Битрейт : 755 Кбит/сек
Каналы : 6 каналов
Расположение каналов : Front: L C R, Side: L R, LFE
Частота : 48,0 КГц
Битовая глубина : 24 бит
Метод сжатия : С потерями
Размер потока : 922 Мбайт (4%)
Заголовок : AVO. Ю.Живов
Язык : Russian
Аудио #8
Идентификатор : 9
Формат : DTS
Формат/Информация : Digital Theater Systems
Идентификатор кодека : A_DTS
Продолжительность : 2 ч. 50 м.
Вид битрейта : Постоянный
Битрейт : 755 Кбит/сек
Каналы : 6 каналов
Расположение каналов : Front: L C R, Side: L R, LFE
Частота : 48,0 КГц
Битовая глубина : 24 бит
Метод сжатия : С потерями
Размер потока : 922 Мбайт (4%)
Язык : English
Текст #1
Идентификатор : 10
Формат : UTF-8
Идентификатор кодека : S_TEXT/UTF8
Идентификатор кодека/Информация : UTF-8 Plain Text
Заголовок : R5
Язык : Russian
Текст #2
Идентификатор : 11
Формат : UTF-8
Идентификатор кодека : S_TEXT/UTF8
Идентификатор кодека/Информация : UTF-8 Plain Text
Заголовок : Киномания
Язык : Russian
Текст #3
Идентификатор : 12
Формат : UTF-8
Идентификатор кодека : S_TEXT/UTF8
Идентификатор кодека/Информация : UTF-8 Plain Text
Язык : Ukrainian
Текст #4
Идентификатор : 13
Формат : UTF-8
Идентификатор кодека : S_TEXT/UTF8
Идентификатор кодека/Информация : UTF-8 Plain Text
Язык : English
Текст #5
Идентификатор : 14
Формат : UTF-8
Идентификатор кодека : S_TEXT/UTF8
Идентификатор кодека/Информация : UTF-8 Plain Text
Заголовок : SDH
Язык : English
Меню
00:00:00.000 : en:Main Titles: Melanesia
00:10:49.440 : en:The Brig
00:15:54.203 : en:The Closer to Caesar
00:20:19.426 : en:Charlie Company
00:25:58.431 : en:Guadalcanal
00:29:32.813 : en:Witt with the Wounded
00:38:02.906 : en:Hill 210
00:41:25.733 : en:Dawn
00:51:15.614 : en:Staros' Attack
00:59:58.136 : en:Keck's Mistake
01:05:15.912 : en:Property (Tella's Death)
01:11:16.772 : en:Refusing an Order
01:20:15.060 : en:Tall Visits the Line
01:26:40.445 : en:The Unguarded Ledge
01:39:53.154 : en:Welsh and Witt
01:44:51.410 : en:The Bunker
01:55:22.249 : en:Gaff and Tall
02:01:02.630 : en:The Japanese Bivouac
02:07:31.018 : en:The Mop-Up
02:14:49.915 : en:Nature's Cruel
02:23:06.286 : en:Staros Leaves
02:30:24.265 : en:The Airfield
02:37:24.435 : en:A Letter

-

Дополнительно


*** Сохранены оригинальные чаптеры как на Blu-ray.
*** New, restored high-definition digital transfer, supervised and approved by director Terrence Malick and cinematographer John Toll (with DTS-HD Master Audio soundtrack on the Blu-ray edition)
*** Дорожка №6,7 получены наложением чистого голоса на центр декодированного DTS-HD MA.

[Цитировать]



Показать сообщения:    

Текущее время: 05-Дек 17:30

Часовой пояс: UTC + 3


Вы не можете начинать темы
Вы не можете отвечать на сообщения
Вы не можете редактировать свои сообщения
Вы не можете удалять свои сообщения
Вы не можете голосовать в опросах
Вы не можете прикреплять файлы к сообщениям
Вы не можете скачивать файлы

!ВНИМАНИЕ!
Сайт не предоставляет электронные версии произведений, а занимается лишь коллекционированием и каталогизацией ссылок, присылаемых и публикуемых на форуме нашими читателями. Если вы являетесь правообладателем какого-либо представленного материала и не желаете, чтобы ссылка на него находилась в нашем каталоге, свяжитесь с нами, и мы незамедлительно удалим ее. Файлы для обмена на трекере предоставлены пользователями сайта, и администрация не несет ответственности за их содержание. Просьба не заливать файлы, защищенные авторскими правами, а также файлы нелегального содержания!