[ Сегодня идет свободное скачивание без начисления Download ]


Статистика раздачи
Нет
 
   
 
Top  
 
 
Профессионал / Le professionnel
Страна: Франция
Студия: Cerito Films, Les Films Ariane
Жанр: боевик, триллер, драма, криминал
Год выпуска: 1981
Продолжительность: 01:47:53
Перевод #1: Профессиональный (многоголосый закадровый) к.ст им. Горького, 1987
Перевод #2: Профессиональный (дублированный) Мосфильм 1990
Перевод #3: Профессиональный (многоголосый закадровый) НТВ / Караченцов
Перевод #4: Профессиональный (многоголосый закадровый) Неоклассика
Перевод #5: Профессиональный (многоголосый закадровый) Тивионика
Перевод #6: Авторский (одноголосый закадровый) Л.Володарский
Перевод #7: Авторский (одноголосый закадровый) П.Прямостанов
Перевод #8: Авторский (одноголосый закадровый) С.Кузнецов
Перевод #9: Профессиональный (многоголосый закадровый) 1+1
Cубтитры: Русские
Оригинальная аудиодорожка: французский
Режиссер: Жорж Лотнер / Georges Lautner
В ролях: Жан-Поль Бельмондо, Жан Дезайи, Робер Оссейн, Мишель Бон, Сирил Клер, Жан-Луи Ришар, Сидики Бакаба, Пьер Сентон, Мари-Кристин Декуар, Бернар-Пьер Доннадьё
Описание: Убить президента африканской республики. Такое задание получил секретный агент Жослен Бомон. Внезапно политика изменилась, и французское правительство сдает героя африканским властям. Сбежав с каторги, волк-одиночка возвращается на родину с одной целью: довести задание до конца. А чернокожий лидер как раз приезжает во Францию.- -
Тип релиза: BDRip 1080p
Контейнер: MKV
Видео: h.264, 1804x1080, 24.000 fps, 12700 kbps
Аудио #1: Russian: AC3 2.0, 48 kHz, 192 kbps avg |Многоголосый закадровый, к.ст им. Горького, 1987|
Аудио #2: Russian: AC3 2.0, 48 kHz, 256 kbps avg |Дубляж, Мосфильм 1990|
Аудио #3: Russian: AC3 2.0, 48 kHz, 192 kbps avg |Многоголосый закадровый, НТВ / Караченцов|
Аудио #4: Russian: AC3 2.0, 48 kHz, 192 kbps avg |Многоголосый закадровый, Неоклассика|
Аудио #5: Russian: AC3 2.0, 48 kHz, 192 kbps avg |Многоголосый закадровый, Тивионика|
Аудио #6: Russian: AC3 2.0, 48 kHz, 192 kbps avg |Авторский (одноголосый закадровый), Л.Володарский|
Аудио #7: Russian: AC3 2.0, 48 kHz, 192 kbps avg |Авторский (одноголосый закадровый), П.Прямостанов|
Аудио #8: Russian: AC3 2.0, 48 kHz, 256 kbps avg |Авторский (одноголосый закадровый), С.Кузнецов|
Аудио #9: Ukrainian: AC3 2.0, 48 kHz, 192 kbps avg |Многоголосый закадровый, 1+1|
Аудио #10: French: AC3 2.0, 48 kHz, 256 kbps avg |Оригинал|
Формат субтитров: softsub (SRT)

MediaInfo

Complete name : G:\Le.professionnel.1981.1080p.BluRay.8xRus.Ukr.Fre.HDCLUB.mkv
Format : Matroska
Format version : Version 2
File size : 11.4 GiB
Duration : 1h 47mn
Overall bit rate : 15.1 Mbps
Movie name : Le professionnel (1981) - Release for HDCLUB
Encoded date : UTC 2011-03-17 13:47:52
Writing application : mkvmerge v4.6.0 ('Still Crazy After All These Years') сборка от Mar 10 2011 02:50:32
Writing library : libebml v1.2.0 + libmatroska v1.1.0
Video
ID : 1
Format : AVC
Format/Info : Advanced Video Codec
Format profile : High@L4.1
Format settings, CABAC : Yes
Format settings, ReFrames : 4 frames
Codec ID : V_MPEG4/ISO/AVC
Duration : 1h 47mn
Bit rate : 12.7 Mbps
Width : 1 804 pixels
Height : 1 080 pixels
Display aspect ratio : 1.670
Frame rate mode : Constant
Frame rate : 24.000 fps
Color space : YUV
Chroma subsampling : 4:2:0
Bit depth : 8 bits
Scan type : Progressive
Bits/(Pixel*Frame) : 0.272
Stream size : 9.56 GiB (84%)
Title : Le professionnel (1981) - Release for HDCLUB
Writing library : x264 core 114 r1913 5fd3dce
Encoding settings : cabac=1 / ref=4 / deblock=1:-3:-3 / analyse=0x3:0x133 / me=esa / subme=10 / psy=1 / psy_rd=1.10:0.00 / mixed_ref=1 / me_range=32 / chroma_me=1 / trellis=2 / 8x8dct=1 / cqm=0 / deadzone=21,11 / fast_pskip=0 / chroma_qp_offset=-2 / threads=3 / sliced_threads=0 / nr=0 / decimate=1 / interlaced=0 / constrained_intra=0 / bframes=6 / b_pyramid=2 / b_adapt=2 / b_bias=0 / direct=3 / weightb=1 / open_gop=0 / weightp=2 / keyint=250 / keyint_min=24 / scenecut=40 / intra_refresh=0 / rc_lookahead=40 / rc=2pass / mbtree=1 / bitrate=12700 / ratetol=1.0 / qcomp=0.60 / qpmin=0 / qpmax=69 / qpstep=4 / cplxblur=20.0 / qblur=0.5 / ip_ratio=1.40 / aq=1:0.60
Language : French
Default : Yes
Forced : No
Audio #1
ID : 2
Format : AC-3
Format/Info : Audio Coding 3
Mode extension : CM (complete main)
Format settings, Endianness : Big
Codec ID : A_AC3
Duration : 1h 47mn
Bit rate mode : Constant
Bit rate : 192 Kbps
Channel(s) : 2 channels
Channel positions : Front: L R
Sampling rate : 48.0 KHz
Bit depth : 16 bits
Compression mode : Lossy
Stream size : 148 MiB (1%)
Title : AC3 2.0ch 192 kbps - Многоголосый, к.ст им.Горького
Language : Russian
Default : Yes
Forced : No
Audio #2
ID : 3
Format : AC-3
Format/Info : Audio Coding 3
Mode extension : CM (complete main)
Format settings, Endianness : Big
Codec ID : A_AC3
Duration : 1h 47mn
Bit rate mode : Constant
Bit rate : 256 Kbps
Channel(s) : 2 channels
Channel positions : Front: L R
Sampling rate : 48.0 KHz
Bit depth : 16 bits
Compression mode : Lossy
Stream size : 198 MiB (2%)
Title : AC3 2.0ch 256 kbps - Дубляж, Мосфильм
Language : Russian
Default : No
Forced : No
Audio #3
ID : 4
Format : AC-3
Format/Info : Audio Coding 3
Mode extension : CM (complete main)
Format settings, Endianness : Big
Codec ID : A_AC3
Duration : 1h 47mn
Bit rate mode : Constant
Bit rate : 192 Kbps
Channel(s) : 2 channels
Channel positions : Front: L R
Sampling rate : 48.0 KHz
Bit depth : 16 bits
Compression mode : Lossy
Stream size : 148 MiB (1%)
Title : AC3 2.0ch 192 kbps - Многоголосый, НТВ
Language : Russian
Default : No
Forced : No
Audio #4
ID : 5
Format : AC-3
Format/Info : Audio Coding 3
Mode extension : CM (complete main)
Format settings, Endianness : Big
Codec ID : A_AC3
Duration : 1h 47mn
Bit rate mode : Constant
Bit rate : 192 Kbps
Channel(s) : 2 channels
Channel positions : Front: L R
Sampling rate : 48.0 KHz
Bit depth : 16 bits
Compression mode : Lossy
Stream size : 148 MiB (1%)
Title : AC3 2.0ch 192 kbps - Многоголосый, Неоклассика
Language : Russian
Default : No
Forced : No
Audio #5
ID : 6
Format : AC-3
Format/Info : Audio Coding 3
Mode extension : CM (complete main)
Format settings, Endianness : Big
Codec ID : A_AC3
Duration : 1h 47mn
Bit rate mode : Constant
Bit rate : 192 Kbps
Channel(s) : 2 channels
Channel positions : Front: L R
Sampling rate : 48.0 KHz
Bit depth : 16 bits
Compression mode : Lossy
Stream size : 148 MiB (1%)
Title : AC3 2.0ch 192 kbps - Многоголосый, Тивионика
Language : Russian
Default : No
Forced : No
Audio #6
ID : 7
Format : AC-3
Format/Info : Audio Coding 3
Mode extension : CM (complete main)
Format settings, Endianness : Big
Codec ID : A_AC3
Duration : 1h 47mn
Bit rate mode : Constant
Bit rate : 192 Kbps
Channel(s) : 2 channels
Channel positions : Front: L R
Sampling rate : 48.0 KHz
Bit depth : 16 bits
Compression mode : Lossy
Stream size : 148 MiB (1%)
Title : AC3 2.0ch 192 kbps - Одноголосый, Л.Володарский
Language : Russian
Default : No
Forced : No
Audio #7
ID : 8
Format : AC-3
Format/Info : Audio Coding 3
Mode extension : CM (complete main)
Format settings, Endianness : Big
Codec ID : A_AC3
Duration : 1h 47mn
Bit rate mode : Constant
Bit rate : 192 Kbps
Channel(s) : 2 channels
Channel positions : Front: L R
Sampling rate : 48.0 KHz
Bit depth : 16 bits
Compression mode : Lossy
Stream size : 148 MiB (1%)
Title : AC3 2.0ch 192 kbps - Одноголосый, П.Прямостанов
Language : Russian
Default : No
Forced : No
Audio #8
ID : 9
Format : AC-3
Format/Info : Audio Coding 3
Mode extension : CM (complete main)
Format settings, Endianness : Big
Codec ID : A_AC3
Duration : 1h 47mn
Bit rate mode : Constant
Bit rate : 256 Kbps
Channel(s) : 2 channels
Channel positions : Front: L R
Sampling rate : 48.0 KHz
Bit depth : 16 bits
Compression mode : Lossy
Stream size : 198 MiB (2%)
Title : AC3 2.0ch 256 kbps - Одноголосый, С.Кузнецов
Language : Russian
Default : No
Forced : No
Audio #9
ID : 10
Format : AC-3
Format/Info : Audio Coding 3
Mode extension : CM (complete main)
Format settings, Endianness : Big
Codec ID : A_AC3
Duration : 1h 47mn
Bit rate mode : Constant
Bit rate : 192 Kbps
Channel(s) : 2 channels
Channel positions : Front: L R
Sampling rate : 48.0 KHz
Bit depth : 16 bits
Compression mode : Lossy
Stream size : 148 MiB (1%)
Title : AC3 2.0ch 192 kbps - Многоголосый
Language : Ukrainian
Default : No
Forced : No
Audio #10
ID : 11
Format : AC-3
Format/Info : Audio Coding 3
Mode extension : CM (complete main)
Format settings, Endianness : Big
Codec ID : A_AC3
Duration : 1h 47mn
Bit rate mode : Constant
Bit rate : 224 Kbps
Channel(s) : 2 channels
Channel positions : Front: L R
Sampling rate : 48.0 KHz
Bit depth : 16 bits
Compression mode : Lossy
Stream size : 173 MiB (1%)
Title : AC3 2.0ch 224 kbps
Language : French
Default : No
Forced : No
Text
ID : 12
Format : UTF-8
Codec ID : S_TEXT/UTF8
Codec ID/Info : UTF-8 Plain Text
Language : Russian
Default : No
Forced : No
Menu
00:00:00.000 : fr:Chapter 1
00:12:39.958 : fr:Chapter 2
00:28:55.250 : fr:Chapter 3
00:41:54.625 : fr:Chapter 4
00:54:46.417 : fr:Chapter 5
01:06:59.000 : fr:Chapter 6
01:21:16.667 : fr:Chapter 7
01:33:52.500 : fr:Chapter 8

Скриншоты

[Цитировать]



Показать сообщения:    

Текущее время: 11-Дек 03:23

Часовой пояс: UTC + 3


Вы не можете начинать темы
Вы не можете отвечать на сообщения
Вы не можете редактировать свои сообщения
Вы не можете удалять свои сообщения
Вы не можете голосовать в опросах
Вы не можете прикреплять файлы к сообщениям
Вы не можете скачивать файлы

!ВНИМАНИЕ!
Сайт не предоставляет электронные версии произведений, а занимается лишь коллекционированием и каталогизацией ссылок, присылаемых и публикуемых на форуме нашими читателями. Если вы являетесь правообладателем какого-либо представленного материала и не желаете, чтобы ссылка на него находилась в нашем каталоге, свяжитесь с нами, и мы незамедлительно удалим ее. Файлы для обмена на трекере предоставлены пользователями сайта, и администрация не несет ответственности за их содержание. Просьба не заливать файлы, защищенные авторскими правами, а также файлы нелегального содержания!