[ Сегодня идет свободное скачивание без начисления Download ]


Статистика раздачи
Нет
 
   
 
Top  
 
 
-Крепкий орешек / Die Hard
«40 Storeys High - with Suspense, Excitement and Adventure on every level!»
-- Год выпуска: 1988 г.
Производство: США
Жанр: боевик, триллер
Продолжительность: 02:12:08
Перевод: Профессиональный (полное дублирование)
Перевод: Профессиональный (многоголосый, закадровый)
Оригинальный аудиопоток: английский
Субтитры: Русские, английские
Режиссер: Джон МакТирнан / John McTiernan
В ролях: Брюс Уиллис, Алан Рикман, Бонни Беделиа, Реджинальд ВелДжонсон, Пол Глисон, Уильям Этертон, Харт Бокнер Джеймс Шигета, Александр Годунов, Бруно Доуон
Описание: В суперсовременном небоскребе Лос-Анджелеса полицейский Джон Макклейн ведет смертельную схватку с бандой политических террористов, взявших в заложники два десятка человек, в число которых попадает и его жена. Началось все с того, что парень приехал в город к жене, оказался на рождественском приеме, а кончилось настоящей войной…- -
-
Качество видео:LR BDRip-AVC
Формат видео: MKV
Видео кодек: H.264
Аудио кодек: AC3
Видео: 1024x432, 23.976fps, 1812 Kbps, 0.171 bit/pixel
Аудио: 48.0 KHz, 6 ch, 448Kbps дублирование
Аудио: 48.0 KHz, 6 ch, 448Kbps многоголосый
Аудио: 48.0 KHz, 6 ch, 448Kbps английские

Media Info

General
Unique ID : 208875351116592518587981635843851619150 (0x9D23EDE8F68BBB8EB351A263D59D0B4E)
Complete name : H:\JRG\Die Hard\Die.Hard.1988.H264.BDRip-AVC.JRG.mkv
Format : Matroska
Format version : Version 2
File size : 2.91 GiB
Duration : 2h 12mn
Overall bit rate : 3 157 Kbps
Movie name : Die Hard (1988) - The Jolly Roger by Pirat.Ca [zyyx]
Encoded date : UTC 2012-10-01 09:35:39
Writing application : mkvmerge v5.6.0 ('Kenya Kane') built on Jun 29 2012 15:01:44
Writing library : libebml v1.2.3 + libmatroska v1.3.0
Video
ID : 1
Format : AVC
Format/Info : Advanced Video Codec
Format profile : [email protected]
Format settings, CABAC : Yes
Format settings, ReFrames : 16 frames
Codec ID : V_MPEG4/ISO/AVC
Duration : 2h 12mn
Bit rate : 1 812 Kbps
Width : 1 024 pixels
Height : 432 pixels
Display aspect ratio : 2.40:1
Frame rate : 23.976 fps
Color space : YUV
Chroma subsampling : 4:2:0
Bit depth : 8 bits
Scan type : Progressive
Bits/(Pixel*Frame) : 0.171
Stream size : 1.62 GiB (55%)
Title : JRG
Writing library : x264 core 125 r2200 999b753
Encoding settings : cabac=1 / ref=16 / deblock=1:-1:-1 / analyse=0x3:0x133 / me=umh / subme=11 / psy=1 / psy_rd=1.00:0.10 / mixed_ref=1 / me_range=64 / chroma_me=1 / trellis=2 / 8x8dct=1 / cqm=0 / deadzone=21,11 / fast_pskip=0 / chroma_qp_offset=-3 / threads=32 / lookahead_threads=6 / sliced_threads=0 / nr=0 / decimate=1 / interlaced=0 / bluray_compat=0 / constrained_intra=0 / bframes=16 / b_pyramid=2 / b_adapt=2 / b_bias=0 / direct=3 / weightb=1 / open_gop=0 / weightp=2 / keyint=250 / keyint_min=23 / scenecut=40 / intra_refresh=0 / rc_lookahead=50 / rc=2pass / mbtree=1 / bitrate=1812 / ratetol=1.0 / qcomp=0.70 / qpmin=0 / qpmax=69 / qpstep=4 / cplxblur=20.0 / qblur=0.5 / ip_ratio=1.40 / aq=1:1.00
Language : English
Default : Yes
Forced : No
Audio #1
ID : 2
Format : AC-3
Format/Info : Audio Coding 3
Mode extension : CM (complete main)
Format settings, Endianness : Big
Codec ID : A_AC3
Duration : 2h 12mn
Bit rate mode : Constant
Bit rate : 448 Kbps
Channel(s) : 6 channels
Channel positions : Front: L C R, Side: L R, LFE
Sampling rate : 48.0 KHz
Bit depth : 16 bits
Compression mode : Lossy
Stream size : 424 MiB (14%)
Language : Russian
Default : Yes
Forced : No
Audio #2
ID : 3
Format : AC-3
Format/Info : Audio Coding 3
Mode extension : CM (complete main)
Format settings, Endianness : Big
Codec ID : A_AC3
Duration : 2h 12mn
Bit rate mode : Constant
Bit rate : 448 Kbps
Channel(s) : 6 channels
Channel positions : Front: L C R, Side: L R, LFE
Sampling rate : 48.0 KHz
Bit depth : 16 bits
Compression mode : Lossy
Stream size : 424 MiB (14%)
Language : Russian
Default : No
Forced : No
Audio #3
ID : 4
Format : AC-3
Format/Info : Audio Coding 3
Mode extension : CM (complete main)
Format settings, Endianness : Big
Codec ID : A_AC3
Duration : 2h 12mn
Bit rate mode : Constant
Bit rate : 448 Kbps
Channel(s) : 6 channels
Channel positions : Front: L C R, Side: L R, LFE
Sampling rate : 48.0 KHz
Bit depth : 16 bits
Compression mode : Lossy
Stream size : 424 MiB (14%)
Language : English
Default : No
Forced : No
Text #1
ID : 5
Format : UTF-8
Codec ID : S_TEXT/UTF8
Codec ID/Info : UTF-8 Plain Text
Language : Russian
Default : Yes
Forced : No
Text #2
ID : 6
Format : UTF-8
Codec ID : S_TEXT/UTF8
Codec ID/Info : UTF-8 Plain Text
Language : English
Default : No
Forced : No

Скриншоты

Крепкий орешек 2 / Die Hard 2
«Yippee Ki Yay, All over again!»
Год выпуска: 1990 г.
Производство: США
Жанр: боевик, триллер, криминал
Продолжительность: 02:03:21
Перевод: Профессиональный (полное дублирование)
Перевод: Профессиональный (многоголосый, закадровый)
Оригинальный аудиопоток: английский
Субтитры: Русские, английские
Режиссер: Ренни Харлин / Renny Harlin
В ролях: Брюс Уиллис Бонни Беделиа Уильям Этертон Реджинальд ВелДжонсон Франко Неро Уильям Сэдлер Джон Эймос Деннис Франц Арт Эванс Фред Долтон Томпсон
Описание: В канун Рождества группа террористов захватила международный аэропорт и теперь удерживает тысячи путешествующих в качестве заложников. Террористы — банда отступников из первоклассно вооруженных коммандос, возглавляемых одержимым жестокостью офицером. Их цель — спасти наркобарона.
Банда подготовлена ко всевозможным случайностям, за исключением одной — встречи с Джоном Макклейном. Брюс Уиллис возвращается в роли супергероя-полицейского, который сражается не только с террористами, но и с некомпетентным шефом полиции аэропорта, тупоголовым начальником антитеррористического подразделения и страшным снежным бураном.
Заложники мечутся, смертельно испуганные и растерянные. А Джон Макклейн ведет схватку и со временем. Его жена находится в одном из самолетов, кружащих над аэропортом. А топливо — на пределе…
Качество видео:LR BDRip-AVC
Формат видео: MKV
Видео кодек: H.264
Аудио кодек: AC3
Видео: 1024x432, 23.976fps, 2034Kbps, 0.192 bit/pixel
Аудио: 48.0 KHz, 6 ch, 448Kbps дублирование
Аудио: 48.0 KHz, 6 ch, 448Kbps многоголосый
Аудио: 48.0 KHz, 6 ch, 448Kbps английские

Media Info

General
Unique ID : 245309990179887329403002655406693695666 (0xB88CFC4E9BE8679BA23D426439C240B2)
Complete name : H:\JRG\Die Hard\Die.Hard.2.1990.H264.BDRip-AVC.JRG.mkv
Format : Matroska
Format version : Version 2
File size : 2.91 GiB
Duration : 2h 3mn
Overall bit rate : 3 377 Kbps
Movie name : Die Hard 2 (1990) - The Jolly Roger by Pirat.Ca [zyyx]
Encoded date : UTC 2012-10-06 17:35:57
Writing application : mkvmerge v5.6.0 ('Kenya Kane') built on Jun 29 2012 15:01:44
Writing library : libebml v1.2.3 + libmatroska v1.3.0
Video
ID : 1
Format : AVC
Format/Info : Advanced Video Codec
Format profile : [email protected]
Format settings, CABAC : Yes
Format settings, ReFrames : 16 frames
Codec ID : V_MPEG4/ISO/AVC
Duration : 2h 3mn
Bit rate : 2 034 Kbps
Width : 1 024 pixels
Height : 432 pixels
Display aspect ratio : 2.40:1
Frame rate : 23.976 fps
Color space : YUV
Chroma subsampling : 4:2:0
Bit depth : 8 bits
Scan type : Progressive
Bits/(Pixel*Frame) : 0.192
Stream size : 1.69 GiB (58%)
Title : JRG
Writing library : x264 core 125 r2200 999b753
Encoding settings : cabac=1 / ref=16 / deblock=1:-1:-1 / analyse=0x3:0x133 / me=umh / subme=11 / psy=1 / psy_rd=1.00:0.10 / mixed_ref=1 / me_range=64 / chroma_me=1 / trellis=2 / 8x8dct=1 / cqm=0 / deadzone=21,11 / fast_pskip=0 / chroma_qp_offset=-3 / threads=32 / lookahead_threads=6 / sliced_threads=0 / nr=0 / decimate=1 / interlaced=0 / bluray_compat=0 / constrained_intra=0 / bframes=16 / b_pyramid=2 / b_adapt=2 / b_bias=0 / direct=3 / weightb=1 / open_gop=0 / weightp=2 / keyint=250 / keyint_min=23 / scenecut=40 / intra_refresh=0 / rc_lookahead=50 / rc=2pass / mbtree=1 / bitrate=2034 / ratetol=1.0 / qcomp=0.70 / qpmin=0 / qpmax=69 / qpstep=4 / cplxblur=20.0 / qblur=0.5 / ip_ratio=1.40 / aq=1:1.00
Language : English
Default : Yes
Forced : No
Audio #1
ID : 2
Format : AC-3
Format/Info : Audio Coding 3
Mode extension : CM (complete main)
Format settings, Endianness : Big
Codec ID : A_AC3
Duration : 2h 3mn
Bit rate mode : Constant
Bit rate : 448 Kbps
Channel(s) : 6 channels
Channel positions : Front: L C R, Side: L R, LFE
Sampling rate : 48.0 KHz
Bit depth : 16 bits
Compression mode : Lossy
Stream size : 395 MiB (13%)
Language : Russian
Default : Yes
Forced : No
Audio #2
ID : 3
Format : AC-3
Format/Info : Audio Coding 3
Mode extension : CM (complete main)
Format settings, Endianness : Big
Codec ID : A_AC3
Duration : 2h 3mn
Bit rate mode : Constant
Bit rate : 448 Kbps
Channel(s) : 6 channels
Channel positions : Front: L C R, Side: L R, LFE
Sampling rate : 48.0 KHz
Bit depth : 16 bits
Compression mode : Lossy
Stream size : 395 MiB (13%)
Language : Russian
Default : No
Forced : No
Audio #3
ID : 4
Format : AC-3
Format/Info : Audio Coding 3
Mode extension : CM (complete main)
Format settings, Endianness : Big
Codec ID : A_AC3
Duration : 2h 3mn
Bit rate mode : Constant
Bit rate : 448 Kbps
Channel(s) : 6 channels
Channel positions : Front: L C R, Side: L R, LFE
Sampling rate : 48.0 KHz
Bit depth : 16 bits
Compression mode : Lossy
Stream size : 395 MiB (13%)
Language : English
Default : No
Forced : No
Text #1
ID : 5
Format : UTF-8
Codec ID : S_TEXT/UTF8
Codec ID/Info : UTF-8 Plain Text
Title : Russian
Language : Russian
Default : No
Forced : No
Text #2
ID : 6
Format : UTF-8
Codec ID : S_TEXT/UTF8
Codec ID/Info : UTF-8 Plain Text
Title : English
Language : English
Default : No
Forced : No

Скриншоты

Крепкий орешек 3: Возмездие / Die Hard: With a Vengeance
«John McClane is about to have a very bad day»
Год выпуска: 1995 г.
Производство: США
Жанр: боевик, триллер, криминал
Продолжительность: 02:08:32
Перевод: Профессиональный (многоголосый, закадровый)
Оригинальный аудиопоток: английский
Субтитры: Русские, английские
Режиссер: Джон МакТирнан / John McTiernan
В ролях: Брюс Уиллис Сэмюэл Л. Джексон Джереми Айронс Ларри Бриггман Грэм Грин Коллин Кэмп Энтони Пек Николас Уаймэн Сэм Филлипс Кевин Чэмберлин
Описание: На улицах Нью-Йорка офицер полиции Джон Макклейн видел все, что только возможно. На этот раз для того, чтобы отомстить Макклейну, террорист Саймон, виртуозно устраивающий взрывы, заставляет героя — полицейского играть в смертельную игру. Ставка — город Нью-Йорк.
Макклейн вынужден метаться по городу, следуя телефонным указаниям Саймона, готового разнести пол — Нью-Йорка за малейшее отклонение от его требований. И в то время, как вся полиция города занята поисками террористов, преступники похищают золотой запас Национального банка США.
У Макклейна бывали неудачные деньки за годы службы в полиции, но сегодня у него, похоже, будет исключительно скверный день… Качество видео:LR BDRip-AVC
Формат видео: MKV
Видео кодек: H.264
Аудио кодек: AC3
Видео: 1024x432, 23.976fps, 2347 Kbps, 0.221 bit/pixel
Аудио: 48.0 KHz, 6 ch, 448Kbps многоголосый
Аудио: 48.0 KHz, 6 ch, 448Kbps английские

Media Info

General
Unique ID : 251642680841939818948356949958051240759 (0xBD509E1004F9D24691A8255368CC1B37)
Complete name : H:\JRG\Die Hard\Die.Hard.With.a.Vengeance.1995.H264.BDRip-AVC.JRG.mkv
Format : Matroska
Format version : Version 2
File size : 2.91 GiB
Duration : 2h 8mn
Overall bit rate : 3 243 Kbps
Movie name : Die Hard: With a Vengeance (1995) - The Jolly Roger by Pirat.Ca [zyyx]
Encoded date : UTC 2012-10-06 18:18:08
Writing application : mkvmerge v5.6.0 ('Kenya Kane') built on Jun 29 2012 15:01:44
Writing library : libebml v1.2.3 + libmatroska v1.3.0
Video
ID : 1
Format : AVC
Format/Info : Advanced Video Codec
Format profile : [email protected]
Format settings, CABAC : Yes
Format settings, ReFrames : 16 frames
Codec ID : V_MPEG4/ISO/AVC
Duration : 2h 8mn
Bit rate : 2 347 Kbps
Width : 1 024 pixels
Height : 432 pixels
Display aspect ratio : 2.40:1
Frame rate : 23.976 fps
Color space : YUV
Chroma subsampling : 4:2:0
Bit depth : 8 bits
Scan type : Progressive
Bits/(Pixel*Frame) : 0.221
Stream size : 2.05 GiB (70%)
Writing library : x264 core 125 r2200 999b753
Encoding settings : cabac=1 / ref=16 / deblock=1:-1:-1 / analyse=0x3:0x133 / me=umh / subme=11 / psy=1 / psy_rd=1.00:0.10 / mixed_ref=1 / me_range=64 / chroma_me=1 / trellis=2 / 8x8dct=1 / cqm=0 / deadzone=21,11 / fast_pskip=0 / chroma_qp_offset=-3 / threads=32 / lookahead_threads=6 / sliced_threads=0 / nr=0 / decimate=1 / interlaced=0 / bluray_compat=0 / constrained_intra=0 / bframes=16 / b_pyramid=2 / b_adapt=2 / b_bias=0 / direct=3 / weightb=1 / open_gop=0 / weightp=2 / keyint=250 / keyint_min=23 / scenecut=40 / intra_refresh=0 / rc_lookahead=50 / rc=2pass / mbtree=1 / bitrate=2347 / ratetol=1.0 / qcomp=0.70 / qpmin=0 / qpmax=69 / qpstep=4 / cplxblur=20.0 / qblur=0.5 / ip_ratio=1.40 / aq=1:1.00
Language : English
Default : Yes
Forced : No
Audio #1
ID : 2
Format : AC-3
Format/Info : Audio Coding 3
Mode extension : CM (complete main)
Format settings, Endianness : Big
Codec ID : A_AC3
Duration : 2h 8mn
Bit rate mode : Constant
Bit rate : 448 Kbps
Channel(s) : 6 channels
Channel positions : Front: L C R, Side: L R, LFE
Sampling rate : 48.0 KHz
Bit depth : 16 bits
Compression mode : Lossy
Stream size : 412 MiB (14%)
Language : Russian
Default : Yes
Forced : No
Audio #2
ID : 3
Format : AC-3
Format/Info : Audio Coding 3
Mode extension : CM (complete main)
Format settings, Endianness : Big
Codec ID : A_AC3
Duration : 2h 8mn
Bit rate mode : Constant
Bit rate : 448 Kbps
Channel(s) : 6 channels
Channel positions : Front: L C R, Side: L R, LFE
Sampling rate : 48.0 KHz
Bit depth : 16 bits
Compression mode : Lossy
Stream size : 412 MiB (14%)
Language : Finnish
Default : No
Forced : No
Text #1
ID : 4
Format : UTF-8
Codec ID : S_TEXT/UTF8
Codec ID/Info : UTF-8 Plain Text
Title : Russian
Language : Russian
Default : No
Forced : No
Text #2
ID : 5
Format : UTF-8
Codec ID : S_TEXT/UTF8
Codec ID/Info : UTF-8 Plain Text
Title : English
Language : English
Default : No
Forced : No

Скриншоты

Крепкий орешек 4.0 / Die Hard 4.0
«Yippee Ki Yay Mo - John 6:27»
Год выпуска: 2007 г.
Производство: США, Великобритания
Жанр: боевик, триллер, кримина
Продолжительность: 02:08:32
Перевод: Профессиональный (полное дублирование)
Оригинальный аудиопоток: английский
Субтитры: Русские, английские
Режиссер: Лен Уайзман / Len Wiseman
В ролях: Брюс Уиллис Джастин Лонг Тимоти Олифант Мэгги Кью Клифф Кёртис Джонатан Садовский Мэри Элизабет Уинстэд Кевин Смит Эндрю Фридман Сирил Раффаэлли
Описание: Мир опять на краю гибели из-за новой террористической угрозы. В этот раз в «заложниках» оказывается всемирная компьютерная сеть. Правительство и спецслужбы бессильны, все готово погрузиться в хаос. Но на борьбу с нависшей над миром опасностью выходит наш старый герой Джон МакКлейн со своей неразлучной подругой «Береттой».
Он давно в отставке, но когда на карту поставлена жизнь членов его семьи, он не будет стоять в стороне и бросит вызов террористам. Однако в этот раз ему уже не справиться без молодого, но очень талантливого помощника. Качество видео:LR BDRip-AVC
Формат видео: MKV
Видео кодек: H.264
Аудио кодек: AC3
Видео: 1024x432, 23.976fps, 2343 Kbps, 0.221 bit/pixel
Аудио: 48.0 KHz, 6 ch, 448Kbps дублирование
Аудио: 48.0 KHz, 6 ch, 448Kbps английские

Media Info

General
Unique ID : 237486012639066756730388708548015415617 (0xB2AA246E86474FF48E144C0FCB45E141)
Complete name : H:\JRG\Die Hard\Die.Hard.4.0.2007.H264.BDRip-AVC.JRG.mkv
Format : Matroska
Format version : Version 2
File size : 2.91 GiB
Duration : 2h 8mn
Overall bit rate : 3 241 Kbps
Movie name : Die Hard 4.0 (2007) - The Jolly Roger by Pirat.Ca [zyyx]
Encoded date : UTC 2012-10-06 21:43:55
Writing application : mkvmerge v5.6.0 ('Kenya Kane') built on Jun 29 2012 15:01:44
Writing library : libebml v1.2.3 + libmatroska v1.3.0
Video
ID : 1
Format : AVC
Format/Info : Advanced Video Codec
Format profile : [email protected]
Format settings, CABAC : Yes
Format settings, ReFrames : 16 frames
Codec ID : V_MPEG4/ISO/AVC
Duration : 2h 8mn
Bit rate : 2 343 Kbps
Width : 1 024 pixels
Height : 432 pixels
Display aspect ratio : 2.40:1
Frame rate : 23.976 fps
Color space : YUV
Chroma subsampling : 4:2:0
Bit depth : 8 bits
Scan type : Progressive
Bits/(Pixel*Frame) : 0.221
Stream size : 2.05 GiB (70%)
Title : JRG
Writing library : x264 core 125 r2200 999b753
Encoding settings : cabac=1 / ref=16 / deblock=1:-1:-1 / analyse=0x3:0x133 / me=umh / subme=11 / psy=1 / psy_rd=1.00:0.10 / mixed_ref=1 / me_range=64 / chroma_me=1 / trellis=2 / 8x8dct=1 / cqm=0 / deadzone=21,11 / fast_pskip=0 / chroma_qp_offset=-3 / threads=32 / lookahead_threads=6 / sliced_threads=0 / nr=0 / decimate=1 / interlaced=0 / bluray_compat=0 / constrained_intra=0 / bframes=16 / b_pyramid=2 / b_adapt=2 / b_bias=0 / direct=3 / weightb=1 / open_gop=0 / weightp=2 / keyint=250 / keyint_min=23 / scenecut=40 / intra_refresh=0 / rc_lookahead=50 / rc=2pass / mbtree=1 / bitrate=2343 / ratetol=1.0 / qcomp=0.70 / qpmin=0 / qpmax=69 / qpstep=4 / cplxblur=20.0 / qblur=0.5 / ip_ratio=1.40 / aq=1:1.00
Language : English
Default : Yes
Forced : No
Audio #1
ID : 2
Format : AC-3
Format/Info : Audio Coding 3
Mode extension : CM (complete main)
Format settings, Endianness : Big
Codec ID : A_AC3
Duration : 2h 8mn
Bit rate mode : Constant
Bit rate : 448 Kbps
Channel(s) : 6 channels
Channel positions : Front: L C R, Side: L R, LFE
Sampling rate : 48.0 KHz
Bit depth : 16 bits
Compression mode : Lossy
Stream size : 412 MiB (14%)
Default : Yes
Forced : No
Audio #2
ID : 3
Format : AC-3
Format/Info : Audio Coding 3
Mode extension : CM (complete main)
Format settings, Endianness : Big
Codec ID : A_AC3
Duration : 2h 8mn
Bit rate mode : Constant
Bit rate : 448 Kbps
Channel(s) : 6 channels
Channel positions : Front: L C R, Side: L R, LFE
Sampling rate : 48.0 KHz
Bit depth : 16 bits
Compression mode : Lossy
Stream size : 412 MiB (14%)
Default : No
Forced : No
Text #1
ID : 4
Format : UTF-8
Codec ID : S_TEXT/UTF8
Codec ID/Info : UTF-8 Plain Text
Title : Russian
Language : Russian
Default : No
Forced : No
Text #2
ID : 5
Format : UTF-8
Codec ID : S_TEXT/UTF8
Codec ID/Info : UTF-8 Plain Text
Title : English
Language : English
Default : No
Forced : No

Скриншоты

[Цитировать]



Показать сообщения:    

Текущее время: 05-Дек 05:31

Часовой пояс: UTC + 3


Вы не можете начинать темы
Вы не можете отвечать на сообщения
Вы не можете редактировать свои сообщения
Вы не можете удалять свои сообщения
Вы не можете голосовать в опросах
Вы не можете прикреплять файлы к сообщениям
Вы не можете скачивать файлы

!ВНИМАНИЕ!
Сайт не предоставляет электронные версии произведений, а занимается лишь коллекционированием и каталогизацией ссылок, присылаемых и публикуемых на форуме нашими читателями. Если вы являетесь правообладателем какого-либо представленного материала и не желаете, чтобы ссылка на него находилась в нашем каталоге, свяжитесь с нами, и мы незамедлительно удалим ее. Файлы для обмена на трекере предоставлены пользователями сайта, и администрация не несет ответственности за их содержание. Просьба не заливать файлы, защищенные авторскими правами, а также файлы нелегального содержания!