[ Сегодня идет свободное скачивание без начисления Download ]


Статистика раздачи
Нет
 
   
 
 
 
[sh]Михей и Джуманжи -[/sh] [sh]Сука любовь[/sh] [sh](переиздание)[/sh] Жанр: Rap, Hip-Hop, R'n'B
Страна-производитель диска: Россия
Год издания: 2013
Издатель (лейбл): ООО"Первое музыкальное Издательство","NIKITIN"
Номер по каталогу: МДС-CD 141/12
Аудиокодек: FLAC (*.flac)
Тип рипа: image+.cue
Битрейт аудио: lossless
Продолжительность: 00:49:11

Треклист

01. Сука любовь
02. Мама VOL (original)
03. Достоин
04. Favorite colour of my life (моей любимой Кристине)
05. Туда (Михей & Джуманжи и Инна Steel)
06. Так чисто
07. Кошка (смысл прост)
08. Плачет по тебе
09. Мама vol 2. (Михей & Джуманжи и DJ L.A.)
Bonus:
10. Для тебя
11. По волнам (Михей и ВИА Чаппа)

Лог создания рипа

Exact Audio Copy V1.0 beta 3 from 29. August 2011
EAC extraction logfile from 22. February 2013, 23:36
Михей и джуманджи / Сука Любовь
Used drive : PIONEER BD-RW BDR-XD04 Adapter: 1 ID: 0
Read mode : SecureUtilize accurate stream : YesDefeat audio cache : YesMake use of C2 pointers : No
Read offset correction : 667Overread into Lead-In and Lead-Out : NoFill up missing offset samples with silence : YesDelete leading and trailing silent blocks : NoNull samples used in CRC calculations : YesUsed interface : Installed external ASPI interface
Used output format : User Defined EncoderSelected bitrate : 128 kBit/sQuality : HighAdd ID3 tag : NoCommand line compressor : C:\Program Files\FLAC\flac.exeAdditional command line options : -V -8 -T "Date=%year%" -T "Genre=%genre%" %source%
TOC of the extracted CD
Track | Start | Length | Start sector | End sector --------------------------------------------------------- 1 | 0:00.00 | 4:57.32 | 0 | 22306 2 | 4:57.32 | 4:20.72 | 22307 | 41878 3 | 9:18.29 | 4:28.53 | 41879 | 62031 4 | 13:47.07 | 4:35.69 | 62032 | 82725 5 | 18:23.01 | 4:53.73 | 82726 | 104773 6 | 23:16.74 | 4:20.53 | 104774 | 124326 7 | 27:37.52 | 4:29.36 | 124327 | 144537 8 | 32:07.13 | 3:41.15 | 144538 | 161127 9 | 35:48.28 | 4:58.49 | 161128 | 183526 10 | 40:47.02 | 3:47.15 | 183527 | 200566 11 | 44:34.17 | 4:36.67 | 200567 | 221333
Range status and errors
Selected range
Filename C:\Users\Sergey\Desktop\Михей и джуманджи - Сука Любовь.wav
Peak level 100.0 % Extraction speed 1.7 X Range quality 100.0 % Test CRC 86342207 Copy CRC 86342207 Copy OK
No errors occurred
AccurateRip summary
Track 1 not present in databaseTrack 2 not present in databaseTrack 3 not present in databaseTrack 4 not present in databaseTrack 5 not present in databaseTrack 6 not present in databaseTrack 7 not present in databaseTrack 8 not present in databaseTrack 9 not present in databaseTrack 10 not present in databaseTrack 11 not present in database
None of the tracks are present in the AccurateRip database
End of status report
==== Log checksum D9637E432BECB2EE727E10669C71AA4283088BCDD6E926423AB40CAC08023186 ====

Содержание индексной карты (.CUE)

REM DATE 2013REM DISCID AA0B870BREM COMMENT "ExactAudioCopy v1.0b3"PERFORMER "Михей и джуманджи"TITLE "Сука Любовь"FILE "Михей и джуманджи - Сука Любовь.flac" WAVE TRACK 01 AUDIO TITLE "Сука любовь" PERFORMER "Михей и джуманджи" FLAGS DCP INDEX 01 00:00:00 TRACK 02 AUDIO TITLE "Мама vol (original)" PERFORMER "Михей и джуманджи" FLAGS DCP INDEX 00 04:55:32 INDEX 01 04:57:32 TRACK 03 AUDIO TITLE "Достоин" PERFORMER "Михей и джуманджи" FLAGS DCP INDEX 00 09:16:29 INDEX 01 09:18:29 TRACK 04 AUDIO TITLE "Favorite colour of my life" PERFORMER "Михей и джуманджи" FLAGS DCP INDEX 00 13:45:07 INDEX 01 13:47:07 TRACK 05 AUDIO TITLE "Туда" PERFORMER "Михей и джуманджи" FLAGS DCP INDEX 00 18:21:01 INDEX 01 18:23:01 TRACK 06 AUDIO TITLE "Так чисто" PERFORMER "Михей и джуманджи" FLAGS DCP INDEX 00 23:14:74 INDEX 01 23:16:74 TRACK 07 AUDIO TITLE "Кошка" PERFORMER "Михей и джуманджи" FLAGS DCP INDEX 00 27:35:52 INDEX 01 27:37:52 TRACK 08 AUDIO TITLE "Плачет по тебе" PERFORMER "Михей и джуманджи" FLAGS DCP INDEX 00 32:05:13 INDEX 01 32:07:13 TRACK 09 AUDIO TITLE "Мама vol.2" PERFORMER "Михей и джуманджи" FLAGS DCP INDEX 00 35:46:28 INDEX 01 35:48:28 TRACK 10 AUDIO TITLE "Для тебя" PERFORMER "Михей и джуманджи" FLAGS DCP INDEX 00 40:45:02 INDEX 01 40:47:02 TRACK 11 AUDIO TITLE "По волнам" PERFORMER "Михей и джуманджи" FLAGS DCP INDEX 00 44:32:17 INDEX 01 44:34:17

Лог проверки качества

Скриншот спектра частот

Доп. информация

Проверка на качество показала что,треки № 10 и 11 не являются CDDA

Об альбоме (сборнике)

«Сука-любовь» — дебютный и единственный альбом группы «Михей и Джуманджи», выпущенный за время её существования. Данная пластинка является переизданием бестселлера 1999 года , который принёс группе большую популярность и был высоко оценён критикой.В отличии от оригинал в данном переиздании отсутствует трек "Дорога к морю" по причине авторских прав , которые принадлежат Ю.Антонову , а жаль , кавер получился отличный.

[Цитировать]



Показать сообщения:    

Текущее время: 04-Дек 15:18

Часовой пояс: UTC + 3


Вы не можете начинать темы
Вы не можете отвечать на сообщения
Вы не можете редактировать свои сообщения
Вы не можете удалять свои сообщения
Вы не можете голосовать в опросах
Вы не можете прикреплять файлы к сообщениям
Вы не можете скачивать файлы

!ВНИМАНИЕ!
Сайт не предоставляет электронные версии произведений, а занимается лишь коллекционированием и каталогизацией ссылок, присылаемых и публикуемых на форуме нашими читателями. Если вы являетесь правообладателем какого-либо представленного материала и не желаете, чтобы ссылка на него находилась в нашем каталоге, свяжитесь с нами, и мы незамедлительно удалим ее. Файлы для обмена на трекере предоставлены пользователями сайта, и администрация не несет ответственности за их содержание. Просьба не заливать файлы, защищенные авторскими правами, а также файлы нелегального содержания!