[ Today is free to download without increasing Download ]

DL-List and Torrent activity
[sh]Мегазаводы: Суперавтомобили: Корвет ZR1[/sh]
[sh]Megafactories: Supercars: Corvette ZR1[/sh]
-- Год выпуска: 2011
Страна: США
Жанр: Документальный
Продолжительность: 00:44:59
Перевод: Профессиональный (одноголосый)
Русские субтитры: нет
Описание: Загляните на завод, где создается замечательный "ZR1" — самый скоростной и дорогой "Корвет" из всех когда-либо выпущенных.
Сэмпл: http://multi-up.com/805392
Качество: SATRip
Формат: AVI
Видео кодек: XviD
Аудио кодек: MP3
Видео: Xvid, 704x400, 16:9, ~1900 kbps, 25 fps
Аудио: MPEG Audio Layer 3, 128 Kbps, 48.0 KHz, 2 ch


Complete name                            : S:\DVD Rip\Documentary films\Мегазаводы. Суперавтомобили\Megafactories. Supercars - Corvette ZR1 (Rus-MP3, SATRip, XviD) [2011].avi
Format                                   : AVI
Format/Info                              : Audio Video Interleave
File size                                : 656 MiB
Duration                                 : 44mn 59s
Overall bit rate                         : 2 038 Kbps
Writing application                      : VirtualDubMod | www.virtualdub-fr.org || (build 2550/release)
Writing library                          : VirtualDubMod build 2550/release
ID                                       : 0
Format                                   : MPEG-4 Visual
Format profile                           : Advanced Simple@L5
Format settings, BVOP                    : 2
Format settings, QPel                    : No
Format settings, GMC                     : No warppoints
Format settings, Matrix                  : Default (H.263)
Codec ID                                 : XVID
Codec ID/Hint                            : XviD
Duration                                 : 44mn 59s
Bit rate                                 : 1 900 Kbps
Width                                    : 704 pixels
Height                                   : 400 pixels
Display aspect ratio                     : 16:9
Frame rate                               : 25.000 fps
Color space                              : YUV
Chroma subsampling                       : 4:2:0
Bit depth                                : 8 bits
Scan type                                : Progressive
Compression mode                         : Lossy
Bits/(Pixel*Frame)                       : 0.270
Stream size                              : 611 MiB (93%)
Writing library                          : XviD 65
ID                                       : 1
Format                                   : MPEG Audio
Format version                           : Version 1
Format profile                           : Layer 3
Codec ID                                 : 55
Codec ID/Hint                            : MP3
Duration                                 : 44mn 59s
Bit rate mode                            : Constant
Bit rate                                 : 128 Kbps
Channel(s)                               : 2 channels
Sampling rate                            : 48.0 KHz
Compression mode                         : Lossy
Stream size                              : 41.2 MiB (6%)
Alignment                                : Aligned on interleaves
Interleave, duration                     : 40 ms (1.00 video frame)
Interleave, preload duration             : 504 ms
Writing library                          : LAME3.99r
Encoding settings                        : -m s -V 4 -q 0 -lowpass 17 -b 128



Display posts:    

Current time is: 21-Oct 00:23

All times are UTC + 3

You cannot post new topics in this forum
You cannot reply to topics in this forum
You cannot edit your posts in this forum
You cannot delete your posts in this forum
You cannot vote in polls in this forum
You cannot attach files in this forum
You cannot download files in this forum

The site does not give electronic versions of products, and is engaged only in a collecting and cataloguing of the references sent and published at a forum by our readers. If you are the legal owner of any submitted material and do not wish that the reference to it was in our catalogue, contact us and we shall immediately remove her. Files for an exchange on tracker are given by users of a site, and the administration does not bear the responsibility for their maintenance. The request to not fill in the files protected by copyrights, and also files of the illegal maintenance!