[ Today is free to download without increasing Download ]

DL-List and Torrent activity
Тимбавати: мир диких кошек / Timbavati: An Epic Cat Story Год выпуска: 2011 - 2012
Страна: США
Жанр: Документальный, природа
Продолжительность: 3 х ~ 00:45:00
Перевод: Одноголосый закадровый
Доп. инфо о переводе: Игорь Тарадайкин / АРК·ТВ
Русские субтитры: нет
Режиссер: Стефания Мюллер / Stefania Muller
качество: HDTVRip
формат: AVI
видеокодек: XviD
аудиокодек: AC3
Видео: MPEG-4 Visual, XviD, 720 х 400 (16:9), 25.000 fps, 1 990 Kbps, 0.276 Bits/Pixel
Аудио: MPEG Audio Layer 3, 48.0 KHz, 128 Kbps, 2 channels

Релиз группа:
Список и краткое поисание серий:1. Царский прайд / The King's PrideДоминирующий лев является главой прайда, львицы при этом охотятся, поддерживают социальную структуру и растят детенышей.2. Нежные убийцы / Tender KillersЛеопарды - заботливые родители и стараются привить детенышам умение охотиться и избегать хищников, - но опасность поджидает их на каждом шагу.3. Кровные узы / Blood TiesЭта программа следит за жизнью семейных групп льва, дикой собаки и гиены, обитающих в национальном парке Крюгера, сравнивая структуру их стай.


Format : AVI
Format/Info : Audio Video Interleave
File size : 685 MiB
Duration : 44mn 59s
Overall bit rate : 2 128 Kbps
Director : CrimeanFox
Writing application : VirtualDubMod | www.virtualdub-fr.org || (build 2550/release)
Writing library : VirtualDub build 32706/release
Copyright : Vanila.films
ID : 0
Format : MPEG-4 Visual
Format profile : Advanced Simple@L5
Format settings, BVOP : 2
Format settings, QPel : No
Format settings, GMC : No warppoints
Format settings, Matrix : Default (MPEG)
Codec ID : XVID
Codec ID/Hint : XviD
Duration : 44mn 59s
Bit rate : 1 990 Kbps
Width : 720 pixels
Height : 400 pixels
Display aspect ratio : 16:9
Frame rate : 25.000 fps
Color space : YUV
Chroma subsampling : 4:2:0
Bit depth : 8 bits
Scan type : Progressive
Compression mode : Lossy
Bits/(Pixel*Frame) : 0.276
Stream size : 640 MiB (94%)
Writing library : XviD 65
ID : 1
Format : MPEG Audio
Format version : Version 1
Format profile : Layer 3
Codec ID : 55
Codec ID/Hint : MP3
Duration : 44mn 59s
Bit rate mode : Constant
Bit rate : 128 Kbps
Channel(s) : 2 channels
Sampling rate : 48.0 KHz
Compression mode : Lossy
Stream size : 41.2 MiB (6%)
Alignment : Aligned on interleaves
Interleave, duration : 40 ms (1.00 video frame)
Interleave, preload duration : 504 ms
Writing library : LAME3.99r
Encoding settings : -m s -V 4 -q 2 -lowpass 17 -b 128



Display posts:    

Current time is: 22-Oct 10:08

All times are UTC + 3

You cannot post new topics in this forum
You cannot reply to topics in this forum
You cannot edit your posts in this forum
You cannot delete your posts in this forum
You cannot vote in polls in this forum
You cannot attach files in this forum
You cannot download files in this forum

The site does not give electronic versions of products, and is engaged only in a collecting and cataloguing of the references sent and published at a forum by our readers. If you are the legal owner of any submitted material and do not wish that the reference to it was in our catalogue, contact us and we shall immediately remove her. Files for an exchange on tracker are given by users of a site, and the administration does not bear the responsibility for their maintenance. The request to not fill in the files protected by copyrights, and also files of the illegal maintenance!