[ Сегодня идет свободное скачивание без начисления Download ]


Статистика раздачи
Нет
 
   
 
Top  
 
 
Хочу как ты / The Change-Up
«Иногда мужчины меняются»
Год выпуска: 2011
Страна: США
Производство: Big Kid Pictures, Original Film, Relativity Media
Жанр: Комедия
Режиссёр: Дэвид Добкин
В ролях: Райан Рейнольдс, Джейсон Бейтман, Лесли Манн, Оливия Уайлд, Алан Аркин, Мирчи Монро, Грегори Итцин, Нед Шмидтке, Сидни Рувьер
Перевод: Профессиональный (полное дублирование) + Оригинал
Субтитры: Русские, Английские
Описание: В детстве Митч и Дейв были неразлучными друзьями. Но со временем их дороги разошлись. Дейв стал успешным юристом и примерным семьянином. Митч же остался холостяком и сердцеедом. Он считает, что у друга есть все, о чем только можно мечтать: прекрасная жена Джейми, любящие дети и крутая работа. Дейву же представляется сказочной беззаботная жизнь Митча, который днем курит травку, а ночи проводит в компании красивых женщин. Но однажды в жизни друзей все переворачивается вверх дном: Митч становится Дейвом, а Дейв — Митчем. Митчу приходится заняться воспитанием троих детей Дейва и взять на себя его работу. На носу — крупная сделка, от результатов которой зависит карьера его друга, но Митч не смыслит в этом ничего. Ситуацию также усложняет обворожительная коллега Дейва, Сабрина, которая не дает прохода Митчу. Старый Митч пошел бы на все, чтобы провести время с этой девушкой. Проблема лишь в том, что в его теле живет Дейв, идеальный муж и папаша, который не может расслабиться ни на минуту. Друзья вскоре понимают, что реальность не такая радужная, как фантазии. Героям придется как следует постараться, чтобы вернуть все на свое место и не разрушить окончательно жизни друг друга...

Качество: BDRip
Продолжительность: 01:58:08
Формат: AVI
Видео кодек: XviD
Аудио кодек: AC3
Видео: 720x304 (2.37:1), 23.976 fps, XviD build 64 ~1870 kbps avg, 0.36 bit/pixel
Аудио 1: 48 kHz, AC3 Dolby Digital, 3/2 (L,C,R,l,r) + LFE ch, ~384.00 kbps avg
Аудио 2: 48 kHz, AC3 Dolby Digital, 3/2 (L,C,R,l,r) + LFE ch, ~384.00 kbps avg

Media Info

D:\....\Hochu.kak.ty.UNRATED.2011.DUAL.BDRip.XviD.AC3.-HQCLUB\Hochu.kak.ty.UNRATED.2011.DUAL.BDRip.XviD.AC3.-HQCLUB.avi
   General
      Complete name : D:\Zona Downloads\Hochu.kak.ty.UNRATED.2011.DUAL.BDRip.XviD.AC3.-HQCLUB\Hochu.kak.ty.UNRATED.2011.DUAL.BDRip.XviD.AC3.-HQCLUB.avi
      Format : AVI
      Format/Info : Audio Video Interleave
      Format profile : OpenDML
      File size : 2.18 GiB
      Duration : 1h 58mn
      Overall bit rate : 2 646 Kbps
      Movie name : Хочу как ты / The Change-Up [UNRATED] (2011) BDRip
      Director : kingsize87
      Writing application : VirtualDubMod 1.5.10.2 (build 2542/release)
      Copyright : HQCLUB
      Comment : 13.01.2012
   Video #0
      ID : 0
      Format : MPEG-4 Visual
      Format profile : Advanced Simple@L5
      Format settings, BVOP : 1
      Format settings, QPel : No
      Format settings, GMC : No warppoints
      Format settings, Matrix : Custom
      Codec ID : XVID
      Codec ID/Hint : XviD
      Duration : 1h 58mn
      Bit rate : 1 860 Kbps
      Width : 720 pixels
      Height : 304 pixels
      Display aspect ratio : 2.35:1
      Frame rate : 23.976 fps
      Color space : YUV
      Chroma subsampling : 4:2:0
      Bit depth : 8 bits
      Scan type : Progressive
      Compression mode : Lossy
      Bits/(Pixel*Frame) : 0.354
      Stream size : 1.53 GiB (70%)
      Writing library : XviD 64
   Audio #1
      ID : 1
      Format : AC-3
      Format/Info : Audio Coding 3
      Mode extension : CM (complete main)
      Codec ID : 2000
      Duration : 1h 58mn
      Bit rate mode : Constant
      Bit rate : 384 Kbps
      Channel(s) : 6 channels
      Channel positions : Front: L C R, Side: L R, LFE
      Sampling rate : 48.0 KHz
      Bit depth : 16 bits
      Compression mode : Lossy
      Stream size : 325 MiB (15%)
      Alignment : Split accross interleaves
      Interleave, duration : 42 ms (1.00 video frame)
      Interleave, preload duration : 500 ms
   Audio #2
      ID : 2
      Format : AC-3
      Format/Info : Audio Coding 3
      Mode extension : CM (complete main)
      Codec ID : 2000
      Duration : 1h 58mn
      Bit rate mode : Constant
      Bit rate : 384 Kbps
      Channel(s) : 6 channels
      Channel positions : Front: L C R, Side: L R, LFE
      Sampling rate : 48.0 KHz
      Bit depth : 16 bits
      Compression mode : Lossy
      Stream size : 325 MiB (15%)
      Alignment : Split accross interleaves
      Interleave, duration : 42 ms (1.00 video frame)
      Interleave, preload duration : 500 ms

Скриншоты



[Цитировать]

Очень интересная комедия для взрослых! А присутствие Оливии Уайлд украшает этот фильм!

[Цитировать]

А что такая скорость не высокая?

[Цитировать]

1110А что такая скорость не высокая?
У меня канал отдачи широкий, скорее всего у вас проблема)

[Цитировать]

У меня канал отдачи широкий, скорее всего у вас проблема)По статистике пишет что отдача 31 KB/s у вас

[Цитировать]

У вас какой провайдер и тарифный план? Я вам говорю ищите у себя проблему!!!!

[Цитировать]



Показать сообщения:    

Текущее время: 10-Дек 23:27

Часовой пояс: UTC + 3


Вы не можете начинать темы
Вы не можете отвечать на сообщения
Вы не можете редактировать свои сообщения
Вы не можете удалять свои сообщения
Вы не можете голосовать в опросах
Вы не можете прикреплять файлы к сообщениям
Вы не можете скачивать файлы

!ВНИМАНИЕ!
Сайт не предоставляет электронные версии произведений, а занимается лишь коллекционированием и каталогизацией ссылок, присылаемых и публикуемых на форуме нашими читателями. Если вы являетесь правообладателем какого-либо представленного материала и не желаете, чтобы ссылка на него находилась в нашем каталоге, свяжитесь с нами, и мы незамедлительно удалим ее. Файлы для обмена на трекере предоставлены пользователями сайта, и администрация не несет ответственности за их содержание. Просьба не заливать файлы, защищенные авторскими правами, а также файлы нелегального содержания!