[ Сегодня идет свободное скачивание без начисления Download ]


Статистика раздачи
Нет
 
   
 
Top  
 
 

Президент Линкольн: Охотник на вампиров
Abraham Lincoln: Vampire Hunter
-

  • Год производства: 2012

  • Страна: США

  • Жанр: ужасы, фэнтези, боевик, триллер

  • Продолжительность: 01:40:44

  • Перевод: Профессиональный (полное дублирование) Лицензия

  • Субтитры: Отсутствуют-
  • Режиссер: Тимур Бекмамбетов-
  • В ролях: Бенджамин Уокер, Доминик Купер, Энтони Маки, Мэри Элизабет Уинстэд, Руфус Сьюэлл, МартонЧокаш, Джимми Симпсон, Джозеф Моул, Робин МакЛиви, Эрин Уоссон и др.-
  • Описание:
    Сюжет фильма раскрывает тайную жизнь Величайшего Президента Америки Авраама Линкольна — любящего мужа и отца днем и беспощадного убийцу вампиров ночью. Армия кровопийц, которым он бросил вызов, растет с каждым днем. Сможет ли президент великой страны противостоять полчищам вампиров и спасти свою семью и народ от неминуемой гибели?-
  • Качество видео: DVDRip DVD9

  • Формат видео: avi

  • Видео кодек: XviD

  • Аудио кодек: mp3

  • Видео: 720x288 (2.50:1), 25 fps, XviD MPEG-4 ~1934 kbps avg, 0.37 bit/pixel

  • Аудио: 48 kHz, MPEG Layer 3, 2 ch, ~128.00 kbps avg-

    MediaInfo

    General
    Complete name                  : D:\Торенты\PREZIDENT.LINKOLN.OHOTNIK.DVDRip.AVI
    Format                         : AVI
    Format/Info                    : Audio Video Interleave
    File size                      : 1.37 GiB
    Duration                       : 1h 40mn
    Overall bit rate               : 1 948 Kbps
    Video
    ID                             : 0
    Format                         : MPEG-4 Visual
    Format profile                 : Advanced [email protected]
    Format settings, BVOP          : 2
    Format settings, QPel          : No
    Format settings, GMC           : No warppoints
    Format settings, Matrix        : Default (MPEG)
    Muxing mode                    : Packed bitstream
    Codec ID                       : XVID
    Codec ID/Hint                  : XviD
    Duration                       : 1h 40mn
    Bit rate                       : 1 807 Kbps
    Width                          : 720 pixels
    Height                         : 288 pixels
    Display aspect ratio           : 2.500
    Frame rate                     : 25.000 fps
    Color space                    : YUV
    Chroma subsampling             : 4:2:0
    Bit depth                      : 8 bits
    Scan type                      : Progressive
    Compression mode               : Lossy
    Bits/(Pixel*Frame)             : 0.349
    Stream size                    : 1.27 GiB (93%)
    Title                          : DVD3VIDEO
    Writing library                : XviD 64
    Audio
    ID                             : 1
    Format                         : MPEG Audio
    Format version                 : Version 1
    Format profile                 : Layer 3
    Mode                           : Joint stereo
    Mode extension                 : MS Stereo
    Codec ID                       : 55
    Codec ID/Hint                  : MP3
    Duration                       : 1h 40mn
    Bit rate mode                  : Constant
    Bit rate                       : 128 Kbps
    Channel(s)                     : 2 channels
    Sampling rate                  : 48.0 KHz
    Compression mode               : Lossy
    Stream size                    : 92.2 MiB (7%)
    Alignment                      : Split accross interleaves
    Interleave, duration           : 24 ms (0.60 video frame)
    Title                          : DVD3AUDIO00

    Скриншоты

[Цитировать]



Показать сообщения:    

Текущее время: 04-Дек 06:57

Часовой пояс: UTC + 3


Вы не можете начинать темы
Вы не можете отвечать на сообщения
Вы не можете редактировать свои сообщения
Вы не можете удалять свои сообщения
Вы не можете голосовать в опросах
Вы не можете прикреплять файлы к сообщениям
Вы не можете скачивать файлы

!ВНИМАНИЕ!
Сайт не предоставляет электронные версии произведений, а занимается лишь коллекционированием и каталогизацией ссылок, присылаемых и публикуемых на форуме нашими читателями. Если вы являетесь правообладателем какого-либо представленного материала и не желаете, чтобы ссылка на него находилась в нашем каталоге, свяжитесь с нами, и мы незамедлительно удалим ее. Файлы для обмена на трекере предоставлены пользователями сайта, и администрация не несет ответственности за их содержание. Просьба не заливать файлы, защищенные авторскими правами, а также файлы нелегального содержания!