[ Сегодня идет свободное скачивание без начисления Download ]


Статистика раздачи
Нет
 
   
 
Top  
 
 
-Крученый мяч / Trouble with the Curve (2012) BDRip- Русское название: Крученый мяч
Оригинальное название: Trouble with the Curve
Год выпуска: 2012
Выпущено: США - Malpaso Productions
Жанр: Драма
Перевод: Многоголосый закадровый, R5
Язык субтитров: Русские, русские (forced), английские, французские, испанские, португальские
Вид субтитров: Вшитые, отключаемые-Описание фильма:
История пожилого бейсбольного тренера. Герой постепенно теряет зрение и вместе с дочерью в последний раз отправляется на поиски будущих звезд бейсбола.
Режиссер: Роберт Лоренц / Robert Lorenz
Актеры: Клинт Иствуд, Джастин Тимберлэйк, Эми Адамс, Джон Гудмен, Боб Гантон, Мэттью Лиллард, Роберт Патрик, Челси Росс, Джордж Уайнер, Эд Лотер-
Дата мировой премьеры: 19 сентября 2012
Дата российской премьеры: 21 марта 2013, «CP Дистрибуция»
Дата выхода DVD релиза: 21 марта 2013, «CP Дистрибуция»-Продолжительность: 01:51:12
Качество видео: BDRip 1080p
Видеокодек: MPEG-4 AVC/H.264
Битрейт видео: H.264, битрейт: 15,1 Мбит/с, размер кадра: 1920x800, 23.976 fps
Аудио #1: Русский: AC3, 5.1, 640 Кбит/с, 16 bit - многоголосый закадровый |лицензия,R5|
Аудио #2: Русский: DTS, 5.1, 1536 Кбит/с, 24 bit - двуголосый закадровый |студия «Омикрон»|
Аудио #3: Английский: DTS , 5.1, 1536 Кбит/с, 24 bit
Сохранены оригинальные чаптеры как на Blu-ray.

Рецензия, отзыв о фильме

«Вот это и есть крученый мяч, сукин сын!»
Новая, отчасти спортивная драма с участием Клинта Иствуда, который наконец-то решил не выступать в качестве режиссера и актера одновременно. Надо сказать, что такое решение пошло только на пользу. «Крученый мяч»мне понравился даже больше, чем «Гран Торино», хотя там была первоклассная картина. Но здесь все немного динамичнее, а персонаж Иствуда все так же суров и ворчлив. Похоже, все последние роли Иствуда в чем-то соответствуют его настрою, может, ему просто нравится такой образ. На сей раз это пожилой тренер по бейсболу, который постепенно теряет зрение, не все так просто в отношениях с дочерью, а в бизнесе появляются новые технологии, ну и так далее.
В общем, согласно сценарию, несколько героев «Крученого мяча» стремятся каждый к своей цели. Тренер Гас по-прежнему лучше всех знает свою работу, несмотря на возраст и проблемы со здоровьем. Дочка Миккии все старается подняться по карьерной лестнице, но на пути лишь бюрократия и конкуренты. А молодой игрок Джонни оказывается между ними связующим звеном, можно сказать, новым членом семьи. Кстати, Джастин Тимберлейк уже без проблем осваивает любые роли, и тут его персонаж является исключительно украшением картины. Кино сделано в стандартной, неторопливой манере: главные герои много общаются, постоянно вступают в конфликт, ну а в итоге все должно закончиться хорошо.
Хороший позитивный фильм, несмотря на обилие грустных сцен. Да еще и осознание того, что подобных ролей у Клинта Иствуда уже скорее всего, будет не так много, как нам хотелось бы. Все-таки возраст уже дает о себе знать. Но наблюдать за ним с каждым новым фильмом все интереснее. Из подобных спортивных драм был «Деньгоболл» с Брэдом Питтом, и там, конечно, все выглядело немного живее. Но говорить, какой из них мне понравился больше, неправильно. Оба очень хороши, и хотя не производят такого впечатления, как, например, «Легенда о Баггере Вейнсе», все равно обязательно стоят Вашего внимания. И драмы достаточно, и забавных моментов, и просто приятного американского «спортивного патриотизма». Тут никто не доказывает, что бейсбол — лучшая на свете игра, просто показаны жизни людей, которые живут в этом виде спорта.
На мой взгляд — добротная спортивная драма с Клинтом Иствудом в главной роли. И этим все сказано.

MediaInfo

Общее
Уникальный идентификатор : 224910528268821349865666249714599780612 (0xA934312EC834B0F2B09F2EE73070E104)
Полное имя : D:\Video\Trouble.with.the.Curve.2012.1080р.BluRay.Rus.Eng.Dubl.mkv
Формат : Matroska
Версия формата : Version 2
Размер файла : 14,9 Гбайт
Продолжительность : 1 ч. 51 м.
Общий поток : 19,2 Мбит/сек
Название фильма : Trouble with the Curve (2012)
Дата кодирования : UTC 2013-02-28 14:03:35
Программа кодирования : mkvmerge v5.4.0 ('Piper') built on Mar 10 2012 13:34:39
Библиотека кодирования : libebml v1.2.3 + libmatroska v1.3.0
Видео
Идентификатор : 1
Формат : AVC
Формат/Информация : Advanced Video Codec
Профиль формата : High@L4.1
Параметр CABAC формата : Да
Параметр ReFrames формата : 5 кадров
Идентификатор кодека : V_MPEG4/ISO/AVC
Продолжительность : 1 ч. 51 м.
Битрейт : 15,1 Мбит/сек
Ширина : 1920 пикселей
Высота : 800 пикселей
Соотношение сторон : 2,40:1
Частота кадров : 23,976 кадра/сек
Цветовое пространство : YUV
Субдискретизация насыщенности : 4:2:0
Битовая глубина : 8 бит
Тип развёртки : Прогрессивная
Бит/(Пиксели*Кадры) : 0.411
Размер потока : 11,8 Гбайт (79%)
Заголовок : Trouble with the Curve (2012)
Библиотека кодирования : x264 core 129 r2230kMod 1cffe9f
Настройки программы : cabac=1 / ref=5 / deblock=1:-3:-3 / analyse=0x3:0x133 / me=umh / subme=11 / psy=1 / fade_compensate=0.00 / psy_rd=0.90:0.00 / mixed_ref=1 / me_range=64 / chroma_me=1 / trellis=2 / 8x8dct=1 / cqm=0 / deadzone=21,11 / fast_pskip=0 / chroma_qp_offset=-2 / threads=12 / lookahead_threads=2 / sliced_threads=0 / nr=0 / decimate=0 / interlaced=0 / bluray_compat=0 / constrained_intra=0 / bframes=11 / b_pyramid=2 / b_adapt=2 / b_bias=0 / direct=1 / weightb=1 / open_gop=0 / weightp=2 / keyint=250 / keyint_min=23 / scenecut=40 / intra_refresh=0 / rc_lookahead=40 / rc=crf / mbtree=0 / crf=17.0000 / qcomp=0.80 / qpmin=0 / qpmax=69 / qpstep=4 / vbv_maxrate=50000 / vbv_bufsize=62500 / crf_max=0.0 / nal_hrd=none / ip_ratio=1.40 / pb_ratio=1.30 / aq=1:0.80
Язык : English
Default : Нет
Forced : Нет
Основные цвета : BT.709-5, BT.1361, IEC 61966-2-4, SMPTE RP177
Характеристики трансфера : BT.709-5, BT.1361
Коэффициенты матрицы : BT.709-5, BT.1361, IEC 61966-2-4 709, SMPTE RP177
Аудио #1
Идентификатор : 2
Формат : AC-3
Формат/Информация : Audio Coding 3
Расширение режима : CM (complete main)
Идентификатор кодека : A_AC3
Продолжительность : 1 ч. 51 м.
Вид битрейта : Постоянный
Битрейт : 640 Кбит/сек
Каналы : 6 каналов
Расположение каналов : Front: L C R, Side: L R, LFE
Частота : 48,0 КГц
Битовая глубина : 16 бит
Метод сжатия : С потерями
Размер потока : 509 Мбайт (3%)
Заголовок : DTS 5.1 @ 640 kbps - Dubl, R5
Язык : Russian
Default : Нет
Forced : Нет
Аудио #2
Идентификатор : 3
Формат : DTS
Формат/Информация : Digital Theater Systems
Идентификатор кодека : A_DTS
Продолжительность : 1 ч. 51 м.
Вид битрейта : Постоянный
Битрейт : 1510 Кбит/сек
Каналы : 6 каналов
Расположение каналов : Front: L C R, Side: L R, LFE
Частота : 48,0 КГц
Битовая глубина : 24 бит
Метод сжатия : С потерями
Размер потока : 1,17 Гбайт (8%)
Заголовок : DTS 5.1 @ 1536 kbps - MVO, OMiCRON
Язык : Russian
Default : Нет
Forced : Нет
Аудио #3
Идентификатор : 4
Формат : DTS
Формат/Информация : Digital Theater Systems
Идентификатор кодека : A_DTS
Продолжительность : 1 ч. 51 м.
Вид битрейта : Постоянный
Битрейт : 1510 Кбит/сек
Каналы : 6 каналов
Расположение каналов : Front: L C R, Side: L R, LFE
Частота : 48,0 КГц
Битовая глубина : 24 бит
Метод сжатия : С потерями
Размер потока : 1,17 Гбайт (8%)
Заголовок : DTS 5.1 @ 1536 kbps
Язык : English
Default : Нет
Forced : Нет
Текст #1
Идентификатор : 5
Формат : UTF-8
Идентификатор кодека : S_TEXT/UTF8
Идентификатор кодека/Информация : UTF-8 Plain Text
Заголовок : Russian
Язык : Russian
Default : Нет
Forced : Нет
Текст #2
Идентификатор : 6
Формат : UTF-8
Идентификатор кодека : S_TEXT/UTF8
Идентификатор кодека/Информация : UTF-8 Plain Text
Заголовок : Russian Forced
Язык : Russian
Default : Нет
Forced : Нет
Текст #3
Идентификатор : 7
Формат : UTF-8
Идентификатор кодека : S_TEXT/UTF8
Идентификатор кодека/Информация : UTF-8 Plain Text
Заголовок : English
Язык : English
Default : Нет
Forced : Нет
Текст #4
Идентификатор : 8
Формат : UTF-8
Идентификатор кодека : S_TEXT/UTF8
Идентификатор кодека/Информация : UTF-8 Plain Text
Заголовок : French
Язык : French
Default : Нет
Forced : Нет
Текст #5
Идентификатор : 9
Формат : UTF-8
Идентификатор кодека : S_TEXT/UTF8
Идентификатор кодека/Информация : UTF-8 Plain Text
Заголовок : Spanish
Язык : Spanish
Default : Нет
Forced : Нет
Текст #6
Идентификатор : 10
Формат : UTF-8
Идентификатор кодека : S_TEXT/UTF8
Идентификатор кодека/Информация : UTF-8 Plain Text
Заголовок : Portugese
Язык : Portuguese
Default : Нет
Forced : Нет
Меню
00:00:00.000 : en:00:00:00.000
00:09:28.943 : en:00:09:28.943
00:19:15.237 : en:00:19:15.237
00:34:47.752 : en:00:34:47.752
00:48:00.002 : en:00:48:00.002
00:59:23.310 : en:00:59:23.310
01:13:24.025 : en:01:13:24.025
01:25:24.995 : en:01:25:24.995
01:37:01.441 : en:01:37:01.441
01:44:19.378 : en:01:44:19.378

Bitrate Viewer

Скриншоты:
Время раздачи: с 10:00 до 20:00 (GMT+2) - до 15 скачавших

[Цитировать]



Показать сообщения:    

Текущее время: 07-Дек 19:26

Часовой пояс: UTC + 3


Вы не можете начинать темы
Вы не можете отвечать на сообщения
Вы не можете редактировать свои сообщения
Вы не можете удалять свои сообщения
Вы не можете голосовать в опросах
Вы не можете прикреплять файлы к сообщениям
Вы не можете скачивать файлы

!ВНИМАНИЕ!
Сайт не предоставляет электронные версии произведений, а занимается лишь коллекционированием и каталогизацией ссылок, присылаемых и публикуемых на форуме нашими читателями. Если вы являетесь правообладателем какого-либо представленного материала и не желаете, чтобы ссылка на него находилась в нашем каталоге, свяжитесь с нами, и мы незамедлительно удалим ее. Файлы для обмена на трекере предоставлены пользователями сайта, и администрация не несет ответственности за их содержание. Просьба не заливать файлы, защищенные авторскими правами, а также файлы нелегального содержания!