[ Сегодня идет свободное скачивание без начисления Download ]


Статистика раздачи
Нет
 
   
 
Top  
 
 
- Тонкая красная линия / The Thin Red Line [The Criterion Collection] (1998) [720p] BDRip- «Every man fights his own war.» - Русское название: Тонкая красная линия
Оригинальное название: The Thin Red Line
Страна: США
Год выпуска: 1998
Жанр: боевик, драма, военный
Описание фильма:
Фильм рассказывает о нескольких месяцах жизни армейского подразделения, в том числе об участии этого подразделения в одной из решающих и сложных операций XX-го века - битве за Гвадалканал. Американские пехотинцы посланы на подмогу морским подразделениям, измотанным схваткой с японцами.
В центре фильма - судьба стрелкового батальона: неожиданно спокойная высадка, кровавые бои и трагическое отступление тех, кому удалось выжить.
Режиссер: Терренс Малик
Актеры: Кирк Асеведо, Шон Пенн, Пенелопа Аллен, Эдриан Броуди, Джеймс Кэвизел, Бенжамин Грин, Саймон Биллиг, Бен Чаплин, Марк Бун Джуниор,Джордж Клуни, Джон Кьюсак, Вуди Харрельсон, Ник Нолти, Джон Си Райли, Джон Траволта
Продолжительность: 02:50:47
Перевод: Дублированный, Многоголосый закадровый, Одноголосый закадровый
Субтитры: Английские, Русские (R5, Киномания), Украинские

Рейтинг MPAA: R - Детям до 17 лет обязательно присутствие родителей!!!
The Criterion Collection: Spine # 536
Дата мировой премьеры: 23 декабря 1998
Дата DVD премьеры: 25 сентября 2008, «Двадцатый Век Фокс СНГ»
Дата Blu-ray премьеры: 19 мая 2011, «Двадцатый Век Фокс СНГ»
Видеокодек: MPEG-4 AVC
Битрейт видео: ~ 6511 Кбит/сек
Размер кадра: 1280x546
Качество видео: BDRip
Аудио:
1. DTS Русский 5.1 / 48 kHz / 768 kbps (Дублированный)
2. DTS Русский 5.1 / 48 kHz / 768 kbps (Многоголосый закадровый, R5)
3. Dolby Digital Русский 5.1 / 48 kHz / 384 kbps (Многоголосый закадровый, Киномания)
4. Dolby Digital Русский 5.1 / 48 kHz / 448 kbps (Многоголосый закадровый, Позитив-Мультимедиа)
5. Dolby Digital Русский 1.0 / 48 kHz / 96 kbps (Многоголосый закадровый, ОРТ)
6. DTS Русский 5.1 / 48 kHz / 768 kbps (Многоголосый закадровый, Карусель)
7. DTS Русский 5.1 / 48 kHz / 768 kbps (Одноголосый закадровый, Ю.Живов)
8. DTS Английский 5.1 / 48 kHz / 768 kbps

Номинации и награды

Номинация на 7 премий «Оскар» включая Лучший фильм. Номинация на премию «Сезар» как Лучший фильм на иностранном языке. 3 премии на Берлинском кинофестивале включая «Золотой Медведь», 1999г.

Знаете ли вы, что...

• Достаточно длительная по времени роль Микки Рурка была полностью вырезана из финальной версии картины. Актер является единственным обладателем полной копии фильма.
• Присутствие на экране Эдриана Броуди также было значительно урезано.
• Полный хронометраж фильма 6 часов.
• Вуди Харрельсон поначалу долго спорил с режиссером по поводу решения, как же умереть своему персонажу. И смерть от взрыва гранаты (что в итоге и было показано в картине) показалась ему слишком мелкой и к тому же несопоставимой с его звездным в то время статусом. Терренс Мэлик взял верх, когда пообещал прибавить к гонорару Вуди некий процент дохода.
• Выражение «тонкая красная линия» в английском языке означает ведение боевых действий на пределе человеческих возможностей. Словосочетание возникло во время Балаклавского сражения Крымской войны, когда британский репортёр, присутствовавший на поле боя, описывал занявший оборону шотландский полк (в английской армии тогда носили красные мундиры) как «тонкую красную линию, ощетинившуюся штыками».
• Тонкая красная линия – это не просто топографический знак. Именно так на военных картах обозначается линия обороны, которую держат, растянутые на несколько километров, бойцы одного подразделения.

MediaInfo

Формат : Matroska
Версия формата : Version 4 / Version 2
Размер файла : 13,6 Гбайт
Продолжительность : 2 ч. 50 м.
Общий поток : 11,4 Мбит/сек
Дата кодирования : UTC 2013-02-20 07:54:24
Программа кодирования : mkvmerge v6.0.0 ('Coming Up For Air') built on Jan 20 2013 09:52:00
Библиотека кодирования : libebml v1.3.0 + libmatroska v1.4.0
Видео
Идентификатор : 1
Формат : AVC
Формат/Информация : Advanced Video Codec
Профиль формата : High@L4.1
Параметр CABAC формата : Да
Параметр ReFrames формата : 10 кадров
Идентификатор кодека : V_MPEG4/ISO/AVC
Продолжительность : 2 ч. 50 м.
Битрейт : 6511 Кбит/сек
Ширина : 1280 пикселей
Высота : 546 пикселей
Соотношение сторон : 2,35:1
Режим частоты кадров : Постоянный
Частота кадров : 23,976 кадра/сек
Цветовое пространство : YUV
Субдискретизация насыщенности : 4:2:0
Битовая глубина : 8 бит
Тип развёртки : Прогрессивная
Бит/(Пиксели*Кадры) : 0.389
Размер потока : 7,77 Гбайт (57%)
Библиотека кодирования : x264 core 129 r2245kMod bc13772
Настройки программы : cabac=1 / ref=10 / deblock=1:-3:-3 / analyse=0x3:0x113 / me=umh / subme=11 / psy=1 / fade_compensate=0.00 / psy_rd=1.05:0.00 / mixed_ref=1 / me_range=48 / chroma_me=1 / trellis=2 / 8x8dct=1 / cqm=0 / deadzone=21,11 / fast_pskip=1 / chroma_qp_offset=-2 / threads=6 / lookahead_threads=1 / sliced_threads=0 / nr=0 / decimate=1 / interlaced=0 / bluray_compat=0 / constrained_intra=0 / bframes=10 / b_pyramid=2 / b_adapt=2 / b_bias=0 / direct=3 / weightb=1 / open_gop=0 / weightp=2 / keyint=240 / keyint_min=23 / scenecut=40 / intra_refresh=0 / rc_lookahead=40 / rc=crf / mbtree=0 / crf=16.7000 / qcomp=0.70 / qpmin=0 / qpmax=69 / qpstep=4 / vbv_maxrate=50000 / vbv_bufsize=62500 / crf_max=0.0 / nal_hrd=none / ip_ratio=1.40 / pb_ratio=1.30 / aq=3:0.80
Язык : English
Default : Да
Forced : Нет
Коэффициенты матрицы : BT.709
Аудио #1
Идентификатор : 2
Формат : DTS
Формат/Информация : Digital Theater Systems
Идентификатор кодека : A_DTS
Продолжительность : 2 ч. 50 м.
Вид битрейта : Постоянный
Битрейт : 755 Кбит/сек
Каналы : 6 каналов
Расположение каналов : Front: L C R, Side: L R, LFE
Частота : 48,0 КГц
Битовая глубина : 24 бит
Метод сжатия : С потерями
Задержка видео : 9 с. 824 мс.
Размер потока : 922 Мбайт (7%)
Заголовок : Дуляж
Язык : Russian
Default : Да
Forced : Нет
Аудио #2
Идентификатор : 3
Формат : DTS
Формат/Информация : Digital Theater Systems
Идентификатор кодека : A_DTS
Продолжительность : 2 ч. 50 м.
Вид битрейта : Постоянный
Битрейт : 755 Кбит/сек
Каналы : 6 каналов
Расположение каналов : Front: L C R, Side: L R, LFE
Частота : 48,0 КГц
Битовая глубина : 24 бит
Метод сжатия : С потерями
Размер потока : 922 Мбайт (7%)
Заголовок : MVO.R5
Язык : Russian
Default : Нет
Forced : Нет
Аудио #3
Идентификатор : 4
Формат : AC-3
Формат/Информация : Audio Coding 3
Расширение режима : CM (complete main)
Параметр Endianness формата : Big
Идентификатор кодека : A_AC3
Продолжительность : 2 ч. 50 м.
Вид битрейта : Постоянный
Битрейт : 384 Кбит/сек
Каналы : 6 каналов
Расположение каналов : Front: L C R, Side: L R, LFE
Частота : 48,0 КГц
Битовая глубина : 16 бит
Метод сжатия : С потерями
Размер потока : 469 Мбайт (3%)
Заголовок : MVO.Киномания
Язык : Russian
Default : Нет
Forced : Нет
Аудио #4
Идентификатор : 5
Формат : AC-3
Формат/Информация : Audio Coding 3
Расширение режима : CM (complete main)
Параметр Endianness формата : Big
Идентификатор кодека : A_AC3
Продолжительность : 2 ч. 50 м.
Вид битрейта : Постоянный
Битрейт : 448 Кбит/сек
Каналы : 6 каналов
Расположение каналов : Front: L C R, Side: L R, LFE
Частота : 48,0 КГц
Битовая глубина : 16 бит
Метод сжатия : С потерями
Размер потока : 547 Мбайт (4%)
Заголовок : MVO. Позитив-Мультимедиа
Язык : Russian
Default : Нет
Forced : Нет
Аудио #5
Идентификатор : 6
Формат : AC-3
Формат/Информация : Audio Coding 3
Расширение режима : CM (complete main)
Параметр Endianness формата : Big
Идентификатор кодека : A_AC3
Продолжительность : 2 ч. 50 м.
Вид битрейта : Постоянный
Битрейт : 96,0 Кбит/сек
Каналы : 1 канал
Расположение каналов : Front: C
Частота : 48,0 КГц
Битовая глубина : 16 бит
Метод сжатия : С потерями
Размер потока : 117 Мбайт (1%)
Заголовок : MVO. ОРТ
Язык : Russian
Default : Нет
Forced : Нет
Аудио #6
Идентификатор : 7
Формат : DTS
Формат/Информация : Digital Theater Systems
Идентификатор кодека : A_DTS
Продолжительность : 2 ч. 50 м.
Вид битрейта : Постоянный
Битрейт : 755 Кбит/сек
Каналы : 6 каналов
Расположение каналов : Front: L C R, Side: L R, LFE
Частота : 48,0 КГц
Битовая глубина : 24 бит
Метод сжатия : С потерями
Размер потока : 922 Мбайт (7%)
Заголовок : MVO. Карусель
Язык : Russian
Default : Нет
Forced : Нет
Аудио #7
Идентификатор : 8
Формат : DTS
Формат/Информация : Digital Theater Systems
Идентификатор кодека : A_DTS
Продолжительность : 2 ч. 50 м.
Вид битрейта : Постоянный
Битрейт : 755 Кбит/сек
Каналы : 6 каналов
Расположение каналов : Front: L C R, Side: L R, LFE
Частота : 48,0 КГц
Битовая глубина : 24 бит
Метод сжатия : С потерями
Размер потока : 922 Мбайт (7%)
Заголовок : AVO. Ю.Живов
Язык : Russian
Default : Нет
Forced : Нет
Аудио #8
Идентификатор : 9
Формат : DTS
Формат/Информация : Digital Theater Systems
Идентификатор кодека : A_DTS
Продолжительность : 2 ч. 50 м.
Вид битрейта : Постоянный
Битрейт : 755 Кбит/сек
Каналы : 6 каналов
Расположение каналов : Front: L C R, Side: L R, LFE
Частота : 48,0 КГц
Битовая глубина : 24 бит
Метод сжатия : С потерями
Размер потока : 922 Мбайт (7%)
Язык : English
Default : Нет
Forced : Нет
Текст #1
Идентификатор : 10
Формат : UTF-8
Идентификатор кодека : S_TEXT/UTF8
Идентификатор кодека/Информация : UTF-8 Plain Text
Заголовок : R5
Язык : Russian
Default : Нет
Forced : Нет
Текст #2
Идентификатор : 11
Формат : UTF-8
Идентификатор кодека : S_TEXT/UTF8
Идентификатор кодека/Информация : UTF-8 Plain Text
Заголовок : Киномания
Язык : Russian
Default : Нет
Forced : Нет
Текст #3
Идентификатор : 12
Формат : UTF-8
Идентификатор кодека : S_TEXT/UTF8
Идентификатор кодека/Информация : UTF-8 Plain Text
Язык : Ukrainian
Default : Нет
Forced : Нет
Текст #4
Идентификатор : 13
Формат : UTF-8
Идентификатор кодека : S_TEXT/UTF8
Идентификатор кодека/Информация : UTF-8 Plain Text
Язык : English
Default : Нет
Forced : Нет
Текст #5
Идентификатор : 14
Формат : UTF-8
Идентификатор кодека : S_TEXT/UTF8
Идентификатор кодека/Информация : UTF-8 Plain Text
Заголовок : SDH
Язык : English
Default : Нет
Forced : Нет
Меню
00:00:00.000 : en:Main Titles: Melanesia
00:10:49.440 : en:The Brig
00:15:54.203 : en:The Closer to Caesar
00:20:19.426 : en:Charlie Company
00:25:58.431 : en:Guadalcanal
00:29:32.813 : en:Witt with the Wounded
00:38:02.906 : en:Hill 210
00:41:25.733 : en:Dawn
00:51:15.614 : en:Staros' Attack
00:59:58.136 : en:Keck's Mistake
01:05:15.912 : en:Property (Tella's Death)
01:11:16.772 : en:Refusing an Order
01:20:15.060 : en:Tall Visits the Line
01:26:40.445 : en:The Unguarded Ledge
01:39:53.154 : en:Welsh and Witt
01:44:51.410 : en:The Bunker
01:55:22.249 : en:Gaff and Tall
02:01:02.630 : en:The Japanese Bivouac
02:07:31.018 : en:The Mop-Up
02:14:49.915 : en:Nature's Cruel
02:23:06.286 : en:Staros Leaves
02:30:24.265 : en:The Airfield
02:37:24.435 : en:A Letter
Скриншоты:
-Раздача: 24/7-Не забываем говорить спасибо, Вам не сложно, а мне приятно)))
Прошу с раздачи не уходить! Скачал сам, дай и другим скачать!!!
Приятного просмотра)))

[Цитировать]



Показать сообщения:    

Текущее время: 09-Дек 16:38

Часовой пояс: UTC + 3


Вы не можете начинать темы
Вы не можете отвечать на сообщения
Вы не можете редактировать свои сообщения
Вы не можете удалять свои сообщения
Вы не можете голосовать в опросах
Вы не можете прикреплять файлы к сообщениям
Вы не можете скачивать файлы

!ВНИМАНИЕ!
Сайт не предоставляет электронные версии произведений, а занимается лишь коллекционированием и каталогизацией ссылок, присылаемых и публикуемых на форуме нашими читателями. Если вы являетесь правообладателем какого-либо представленного материала и не желаете, чтобы ссылка на него находилась в нашем каталоге, свяжитесь с нами, и мы незамедлительно удалим ее. Файлы для обмена на трекере предоставлены пользователями сайта, и администрация не несет ответственности за их содержание. Просьба не заливать файлы, защищенные авторскими правами, а также файлы нелегального содержания!