[ Сегодня идет свободное скачивание без начисления Download ]


Статистика раздачи
Нет
 
   
 
Top  
 
 
-Хранители снов / Rise of the Guardians (2012) BDRip- Русское название: Хранители снов
Оригинальное название: Rise of the Guardians
Год выпуска: 2012
Жанр: Мультфильм, Фэнтези, Приключения, Семейный
Описание:
Когда злой дух Кромешник посягает на самое дорогое — детские мечты, Северянин, Ледяной Джек, Кролик, Зубная Фея и Песочный Человек впервые объединяются, чтобы создать команду Хранителей снов…-Режиссер: Питер Рэмси
Персонажи: Крис Пайн Алек Болдуин Джуд Лоу Айла Фишер Хью Джекман Дакота Гойо Хамани Гриффин Камиль МакФедден Джорджи Грив Эмили Нордвинд
Роли дубдировали: Тимур Родригез, Александр Новиков, Сергей Смирнов, Кристина Асмус, Даниил Эльдаров
Продолжительность: 01:37:11
Перевод: Дублированный [Чистый звук]- -Видеокодек: MPEG-4 AVC/H.264
Битрейт видео: ~10,1 Мбит/сек
Размер кадра: 1920x1080
Качество видео: BDRip [zman]
Аудио №1: AC3 5.1 448 kbps - Русский
Аудио №2: AC3 5.1 640 kbps - Английский-Дата мировой премьеры: 10 октября 2012
Дата российской премьеры: 22 ноября 2012, «Централ Партнершип»
Дата выхода DVD релиза: 25 марта 2013, «Новый Диск»
Дата выхода BLU-RAY релиза: 25 марта 2013, «Новый Диск»-

Media info:

Общее
Уникальный идентификатор : 251579141721549895828422373831815619057 (0xBD446157922C9AADA8559210C59A61F1)
Полное имя : H:\my films\Rise.Of.The.Guardians.3D.H-SBS-zman.mkv
Формат : Matroska
Версия формата : Version 3 / Version 2
Размер файла : 7,76 Гбайт
Продолжительность : 1 ч. 37 м.
Общий поток : 11,4 Мбит/сек
Название фильма : Rise.Of.The.Guardians.3D.H-SBS-zman
Дата кодирования : UTC 2013-03-01 12:42:30
Программа кодирования : mkvmerge v5.7.0 ('The Whirlwind') built on Aug 7 2012 14:11:40
Библиотека кодирования : libebml v1.2.3 + libmatroska v1.3.0
Видео
Идентификатор : 1
Формат : AVC
Формат/Информация : Advanced Video Codec
Профиль формата : High@L4.1
MultiView_Count : 2
MultiView_Layout : Side by Side (left eye first)
Параметр CABAC формата : Да
Параметр ReFrames формата : 4 кадра
Режим смешивания : Header stripping
Идентификатор кодека : V_MPEG4/ISO/AVC
Продолжительность : 1 ч. 37 м.
Битрейт : 10,1 Мбит/сек
Ширина : 1920 пикселей
Высота : 1080 пикселей
Соотношение сторон : 16:9
Режим частоты кадров : Постоянный
Частота кадров : 23,976 кадра/сек
Цветовое пространство : YUV
Субдискретизация насыщенности : 4:2:0
Битовая глубина : 8 бит
Тип развёртки : Прогрессивная
Бит/(Пиксели*Кадры) : 0.203
Размер потока : 6,87 Гбайт (88%)
Заголовок : Rise.Of.The.Guardians.3D.H-SBS-zman
Библиотека кодирования : x264 core 129 r2245 bc13772
Настройки программы : cabac=1 / ref=4 / deblock=1:-3:-3 / analyse=0x3:0x113 / me=umh / subme=9 / psy=1 / psy_rd=1.00:0.15 / mixed_ref=1 / me_range=16 / chroma_me=1 / trellis=1 / 8x8dct=1 / cqm=0 / deadzone=21,11 / fast_pskip=1 / chroma_qp_offset=-3 / threads=12 / lookahead_threads=2 / sliced_threads=0 / nr=0 / decimate=1 / interlaced=0 / bluray_compat=0 / constrained_intra=0 / bframes=6 / b_pyramid=2 / b_adapt=1 / b_bias=0 / direct=3 / weightb=1 / open_gop=0 / weightp=2 / keyint=250 / keyint_min=23 / scenecut=40 / intra_refresh=0 / rc_lookahead=40 / rc=crf / mbtree=1 / crf=18.0 / qcomp=0.60 / qpmin=10 / qpmax=69 / qpstep=4 / vbv_maxrate=40000 / vbv_bufsize=30000 / crf_max=0.0 / nal_hrd=none / ip_ratio=1.40 / aq=1:1.00
Default : Да
Forced : Нет
Аудио #1
Идентификатор : 2
Формат : AC-3
Формат/Информация : Audio Coding 3
Расширение режима : CM (complete main)
Параметр Endianness формата : Big
Режим смешивания : Header stripping
Идентификатор кодека : A_AC3
Продолжительность : 1 ч. 37 м.
Вид битрейта : Постоянный
Битрейт : 448 Кбит/сек
Каналы : 6 каналов
Расположение каналов : Front: L C R, Side: L R, LFE
Частота : 48,0 КГц
Битовая глубина : 16 бит
Метод сжатия : С потерями
Размер потока : 311 Мбайт (4%)
Язык : Russian
Default : Да
Forced : Нет
Аудио #2
Идентификатор : 3
Формат : AC-3
Формат/Информация : Audio Coding 3
Расширение режима : CM (complete main)
Параметр Endianness формата : Big
Режим смешивания : Header stripping
Идентификатор кодека : A_AC3
Продолжительность : 1 ч. 37 м.
Вид битрейта : Постоянный
Битрейт : 640 Кбит/сек
Каналы : 6 каналов
Расположение каналов : Front: L C R, Side: L R, LFE
Частота : 48,0 КГц
Битовая глубина : 16 бит
Метод сжатия : С потерями
Размер потока : 445 Мбайт (6%)
Язык : English
Default : Нет
Forced : Нет
Меню
00:00:00.000 : en:00:00:00.000
00:03:51.481 : en:00:03:51.481
00:10:34.843 : en:00:10:34.843
00:16:17.643 : en:00:16:17.643
00:24:49.363 : en:00:24:49.363
00:30:38.378 : en:00:30:38.378
00:36:38.947 : en:00:36:38.947
00:43:05.166 : en:00:43:05.166
00:50:22.311 : en:00:50:22.311
00:58:09.611 : en:00:58:09.611
01:03:55.331 : en:01:03:55.331
01:09:12.815 : en:01:09:12.815
01:14:03.189 : en:01:14:03.189
01:20:44.923 : en:01:20:44.923
01:24:51.503 : en:01:24:51.503
01:28:33.892 : en:01:28:33.892
Проверено на встроенном плейере ТВ Samsung-D6500Скриншоты:

Время раздачи: 24/7 - круглосуточно до 15 скачавших

[Цитировать]



Показать сообщения:    

Текущее время: 08-Дек 03:12

Часовой пояс: UTC + 3


Вы не можете начинать темы
Вы не можете отвечать на сообщения
Вы не можете редактировать свои сообщения
Вы не можете удалять свои сообщения
Вы не можете голосовать в опросах
Вы не можете прикреплять файлы к сообщениям
Вы не можете скачивать файлы

!ВНИМАНИЕ!
Сайт не предоставляет электронные версии произведений, а занимается лишь коллекционированием и каталогизацией ссылок, присылаемых и публикуемых на форуме нашими читателями. Если вы являетесь правообладателем какого-либо представленного материала и не желаете, чтобы ссылка на него находилась в нашем каталоге, свяжитесь с нами, и мы незамедлительно удалим ее. Файлы для обмена на трекере предоставлены пользователями сайта, и администрация не несет ответственности за их содержание. Просьба не заливать файлы, защищенные авторскими правами, а также файлы нелегального содержания!