[ Сегодня идет свободное скачивание без начисления Download ]


Статистика раздачи
Нет
 
   
 
Top  
 
 
-Красная Шапка против зла / Hoodwinked Too! Hood vs. Evil (2011) BDRip- Русское название: Красная Шапка против зла
Оригинальное название: Hoodwinked Too! Hood vs. Evil
Год выпуска: 2011
Жанр: Мультфильм, Комедия, Семейный
Описание:
Красная Шапка проходит курс подготовки в шпионской школе «Хитрый Дятел» и становится секретным агентом. Глава разведшколы сразу кидает Шапку в самое пекло. Ее миссия — расследовать загадочное исчезновение Гензель и Гретель. Возможно, Шапка так бы и провалила первое задание, но отважная Бабушка, Волк — папарацци и вся банда лесной братвы сотрут в порошок любого, кто встанет на пути любимой внученьки. Пусть это будет хоть само Зло!-Режиссер: Майкл Д’Иса-Хоган
Персонажи: Хайден Панеттьери, Гленн Клоуз, Патрик Варбертон, Джоан Кьюсак, Дэвид Огден Стайерз, Билл Хэйдер, Эми Полер, Энди Дик, Мартин Шорт, Брэд Гэррет
Роли дублировали: Нонна Гришаева, Людмила Гнилова, Александр Груздев, Ирина Савина, Александр Клюквин
Продолжительность: 01:26:22
Перевод: Дублированный- -Видеокодек: MPEG-4 AVC/H.264
Битрейт видео: ~8119 Кбит/сек
Размер кадра: 1920x1080
Качество видео: BDRip / За исходник спасибо:
Аудио №1: AC3 5.1 448 kbps - Русский
Аудио №2: AC3 5.1 640 kbps - Английский-Дата мировой премьеры: 23 апреля 2011
Дата российской премьеры: 4 августа 2011, «Люксор»
Дата выхода DVD релиза: 1 сентября 2011, «Флагман-Трейд»
Дата выхода BLU-RAY релиза: 1 сентября 2011, «Флагман-Трейд»-

Media info:

Общее
Уникальный идентификатор : 252988074603394313398925246023720373340 (0xBE53BB18AB06C5A886A6CDD56ECA0C5C)
Полное имя : H:\my films\HOODWINKED_TOO_3D.mkv
Формат : Matroska
Версия формата : Version 2
Размер файла : 5,67 Гбайт
Продолжительность : 1 ч. 26 м.
Общий поток : 9394 Кбит/сек
Название фильма : HOODWINKED_TOO_3D_HO/U
Дата кодирования : UTC 2013-03-01 11:40:45
Программа кодирования : mkvmerge v5.7.0 ('The Whirlwind') built on Aug 7 2012 14:11:40
Библиотека кодирования : libebml v1.2.3 + libmatroska v1.3.0
Видео
Идентификатор : 1
Формат : AVC
Формат/Информация : Advanced Video Codec
Профиль формата : High@L4.1
Параметр CABAC формата : Да
Параметр ReFrames формата : 4 кадра
Режим смешивания : Header stripping
Идентификатор кодека : V_MPEG4/ISO/AVC
Продолжительность : 1 ч. 26 м.
Битрейт : 8119 Кбит/сек
Ширина : 1920 пикселей
Высота : 1080 пикселей
Соотношение сторон : 16:9
Режим частоты кадров : Постоянный
Частота кадров : 23,976 кадра/сек
Цветовое пространство : YUV
Субдискретизация насыщенности : 4:2:0
Битовая глубина : 8 бит
Тип развёртки : Прогрессивная
Бит/(Пиксели*Кадры) : 0.163
Размер потока : 4,90 Гбайт (86%)
Заголовок : rip by I/N
Библиотека кодирования : x264 core 128 r2216M 198a7ea
Настройки программы : cabac=1 / ref=5 / deblock=1:-3:-3 / analyse=0x3:0x133 / me=umh / subme=9 / psy=1 / psy_rd=1.00:0.10 / mixed_ref=1 / me_range=32 / chroma_me=1 / trellis=2 / 8x8dct=1 / cqm=1 / deadzone=21,11 / fast_pskip=1 / chroma_qp_offset=-3 / threads=4 / lookahead_threads=1 / sliced_threads=0 / nr=0 / decimate=1 / interlaced=0 / bluray_compat=0 / constrained_intra=0 / bframes=3 / b_pyramid=1 / b_adapt=2 / b_bias=0 / direct=3 / weightb=1 / open_gop=0 / weightp=2 / keyint=230 / keyint_min=23 / scenecut=40 / intra_refresh=0 / rc_lookahead=60 / rc=crf / mbtree=1 / crf=16.0 / qcomp=0.60 / qpmin=10 / qpmax=51 / qpstep=6 / vbv_maxrate=40000 / vbv_bufsize=30000 / crf_max=30.0 / nal_hrd=none / ip_ratio=1.40 / aq=1:0.70
Default : Да
Forced : Нет
Аудио #1
Идентификатор : 2
Формат : AC-3
Формат/Информация : Audio Coding 3
Расширение режима : CM (complete main)
Параметр Endianness формата : Big
Режим смешивания : Header stripping
Идентификатор кодека : A_AC3
Продолжительность : 1 ч. 26 м.
Вид битрейта : Постоянный
Битрейт : 448 Кбит/сек
Каналы : 6 каналов
Расположение каналов : Front: L C R, Side: L R, LFE
Частота : 48,0 КГц
Битовая глубина : 16 бит
Метод сжатия : С потерями
Размер потока : 277 Мбайт (5%)
Язык : Russian
Default : Да
Forced : Нет
Аудио #2
Идентификатор : 3
Формат : AC-3
Формат/Информация : Audio Coding 3
Расширение режима : CM (complete main)
Параметр Endianness формата : Big
Режим смешивания : Header stripping
Идентификатор кодека : A_AC3
Продолжительность : 1 ч. 26 м.
Вид битрейта : Постоянный
Битрейт : 640 Кбит/сек
Каналы : 6 каналов
Расположение каналов : Front: L C R, Side: L R, LFE
Частота : 48,0 КГц
Битовая глубина : 16 бит
Метод сжатия : С потерями
Размер потока : 395 Мбайт (7%)
Язык : English
Default : Нет
Forced : Нет
Меню
00:00:00.000 : en:(01)00:00:00:000
00:09:32.530 : en:(02)00:09:32:530
00:16:46.630 : en:(03)00:16:46:630
00:20:27.351 : en:(04)00:20:27:351
00:28:45.390 : en:(05)00:28:45:390
00:37:40.049 : en:(06)00:37:40:049
00:42:04.063 : en:(07)00:42:04:063
00:48:22.816 : en:(08)00:48:22:816
00:53:40.383 : en:(09)00:53:40:383
01:00:00.179 : en:(10)01:00:00:179
01:04:41.127 : en:(11)01:04:41:127
01:15:35.656 : en:(12)01:15:35:656
01:26:22.552 : en:(13)01:26:22:552
Проверено на встроенном плейере ТВ Samsung-D6500Скриншоты:

Время раздачи: 24/7 - круглосуточно до 15 скачавших

[Цитировать]



Показать сообщения:    

Текущее время: 09-Дек 18:26

Часовой пояс: UTC + 3


Вы не можете начинать темы
Вы не можете отвечать на сообщения
Вы не можете редактировать свои сообщения
Вы не можете удалять свои сообщения
Вы не можете голосовать в опросах
Вы не можете прикреплять файлы к сообщениям
Вы не можете скачивать файлы

!ВНИМАНИЕ!
Сайт не предоставляет электронные версии произведений, а занимается лишь коллекционированием и каталогизацией ссылок, присылаемых и публикуемых на форуме нашими читателями. Если вы являетесь правообладателем какого-либо представленного материала и не желаете, чтобы ссылка на него находилась в нашем каталоге, свяжитесь с нами, и мы незамедлительно удалим ее. Файлы для обмена на трекере предоставлены пользователями сайта, и администрация не несет ответственности за их содержание. Просьба не заливать файлы, защищенные авторскими правами, а также файлы нелегального содержания!