[ Сегодня идет свободное скачивание без начисления Download ]


Статистика раздачи
Нет
 
   
 
Top  
 
 
-Мой парень – псих / Silver Linings Playbook (2012) DVD9- Русское название: Мой парень – псих
Оригинальное название: Silver Linings Playbook
Год выпуска: 2012
Производство: США
Жанр: Драма, Мелодрама, Комедия
Перевод: Многоголосый закадровый [Лицензия]
Субтитры: Отсутствуют
Режиссер: Дэвид О. Расселл
Актеры: Брэдли Купер, Дженнифер Лоуренс, Роберт Де Ниро, Джеки Уивер, Крис Такер, Анупам Кхер, Джон Ортиз, Ши Уигхэм, Джулия Стайлз, Пол Херман
Описание фильма:
После ухода жены жизнь главного героя кардинально меняется. Он переезжает в дом родителей и теряет старых друзей. Казалось бы, хуже не придумаешь, но жизнь всегда преподносит все самое интересное в тот момент, когда меньше всего ожидаешь. Знакомство с девушкой Тиффани — как раз тот случай...

Дата мировой премьеры: 8 сентября 2012
Дата российской премьеры: 22 ноября 2012, «Top Film Distribution»
Дата выхода DVD релиза: 24 января 2013, «New Dream media», «Новый Диск»
Продолжительность: 01:57:07
Качество видео: DVD9
Видеокодек: MPEG-2
Битрейт видео: ~6193 kbps
Размер кадра: PAL 16:9 (720x576@1024х576)
Аудио: AC3, 6 ch, 448 Кбит/с [Многоголосый, Русский]
Доп. материалы: Отсутствуют

MediaInfo:

Общее
Полное имя : Moj.paren.psih.2012.DVD9\VIDEO_TS\VTS_01_1.VOB
Формат : MPEG-PS
Размер файла : 1024 Мбайт
Продолжительность : 21 м.
Режим общего битрейта : Переменный
Общий поток : 6776 Кбит/сек
Видео
Идентификатор : 224 (0xE0)
Формат : MPEG Video
Версия формата : Version 2
Профиль формата : Main@Main
Параметр BVOP формата : Да
Параметр матрицы формата : Выборочная
Продолжительность : 21 м.
Вид битрейта : Переменный
Битрейт : 6193 Кбит/сек
Максимальный битрейт : 8000 Кбит/сек
Ширина : 720 пикселей
Высота : 576 пикселей
Соотношение сторон : 16:9
Частота кадров : 25,000 кадров/сек
Стандарт вещания : PAL
Цветовое пространство : YUV
Субдискретизация насыщенности : 4:2:0
Битовая глубина : 8 бит
Тип развёртки : Чересстрочная
Порядок развёртки : Верхнее поле первое
Метод сжатия : С потерями
Бит/(Пиксели*Кадры) : 0.597
Размер потока : 936 Мбайт (91%)
Аудио
Идентификатор : 189 (0xBD)-128 (0x80)
Формат : AC-3
Формат/Информация : Audio Coding 3
Расширение режима : CM (complete main)
Режим смешивания : DVD-Video
Продолжительность : 21 м.
Вид битрейта : Постоянный
Битрейт : 448 Кбит/сек
Каналы : 6 каналов
Расположение каналов : Front: L C R, Side: L R, LFE
Частота : 48,0 КГц
Битовая глубина : 16 бит
Метод сжатия : С потерями
Размер потока : 67,7 Мбайт (7%)
Меню

DVDInfo:

Title: Moj.paren.psih.2012.DVD9
Size: 5.49 Gb ( 5 759 958,00 KBytes ) - DVD-9
Enabled regions: 1, 2, 3, 4, 5, 6, 7, 8
VTS_01 :
Play Length: 01:57:07
Video: PAL 16:9 (720x576) VBR, Auto Letterboxed
Audio:
Russian (Dolby AC3, 6 ch)
VTS_02 :
Play Length: 00:00:08
Video: PAL 4:3 (720x576) VBR
VTS_03 :
Play Length: 00:00:30
Video: PAL 4:3 (720x576) VBR
Audio:
English (Dolby AC3, 2 ch)
VTS_04 :
Play Length: 00:00:21
Video: PAL 16:9 (720x576) VBR, Auto Letterboxed
Audio:
English (Dolby AC3, 2 ch)
* Menus Information *
VIDEO_TS Menu
Video:
NTSC 4:3 (720x480) VBR
Auto Pan&Scan, Auto Letterboxed
Russian Language Unit :
Title Menu
VTS_01 Menu
Video:
PAL 16:9 (720x576) VBR
Auto Letterboxed
Audio:
Not specified (Dolby AC3, 2 ch)
Russian Language Unit :
Root Menu
Chapter (PTT) Menu
VTS_02 Menu
Video:
NTSC 4:3 (720x480) VBR
Auto Pan&Scan, Auto Letterboxed
Language Unit :
Chapter (PTT) Menu
VTS_03 Menu
Video:
NTSC 4:3 (720x480) VBR
Auto Pan&Scan, Auto Letterboxed
Language Unit :
Chapter (PTT) Menu
VTS_04 Menu
Video:
NTSC 4:3 (720x480) VBR
Auto Pan&Scan, Auto Letterboxed
Language Unit :
Chapter (PTT) Menu

Меню DVD:

Скриншоты:


Время раздачи: Обычно с 19:00 до 00:00

[Цитировать]



Показать сообщения:    

Текущее время: 09-Дек 18:29

Часовой пояс: UTC + 3


Вы не можете начинать темы
Вы не можете отвечать на сообщения
Вы не можете редактировать свои сообщения
Вы не можете удалять свои сообщения
Вы не можете голосовать в опросах
Вы не можете прикреплять файлы к сообщениям
Вы не можете скачивать файлы

!ВНИМАНИЕ!
Сайт не предоставляет электронные версии произведений, а занимается лишь коллекционированием и каталогизацией ссылок, присылаемых и публикуемых на форуме нашими читателями. Если вы являетесь правообладателем какого-либо представленного материала и не желаете, чтобы ссылка на него находилась в нашем каталоге, свяжитесь с нами, и мы незамедлительно удалим ее. Файлы для обмена на трекере предоставлены пользователями сайта, и администрация не несет ответственности за их содержание. Просьба не заливать файлы, защищенные авторскими правами, а также файлы нелегального содержания!