[ Сегодня идет свободное скачивание без начисления Download ]


Статистика раздачи
Нет
 
   
 
Top  
 
 
-Мужчина нарасхват / Playing for Keeps (2012) DVD9- Русское название: Мужчина нарасхват
Оригинальное название: Playing for Keeps
Год выпуска: 2012
Производство: США
Жанр: Мелодрама, комедия
Перевод: Дублированный [Лицензия]
Субтитры: Нет
Дата мировой премьеры: 05 декабря 2012
Дата Российской премьеры: 06 декабря 2012
Дата выхода DVD релиза: 28 февраля 2013, «Флагман-Трейд»
Режиссер: Габриэле Муччино
Продюсер: Джерард Батлер, Хайди Джо Маркел, Кевин Мишер
Актеры: Джерард Батлер, Джессика Бил, Ума Турман, Кэтрин Зета-Джонс, Деннис Куэйд, Ной Ломакс, Джеймс Таппер, Джуди Грир, Абелла Уайсс, Грант Гудман...
Описание фильма:
Звезда футбола и просто шикарный мужчина по воле случая становится тренером детской футбольной команды. С этого момента для своих подопечных и их обольстительных мамочек он — «Мужчина нарасхват»…

Продолжительность: 01:41:03
Качество видео: DVD9 R5
Видеокодек: MPEG-2
Битрейт видео: ~8962 kbps
Размер кадра: 720х576@1024x576
Аудио: (Dolby AC3, 6 ch) 448 kbps Русский
Доп.материалы: Нет

DVDInfo

Title: Muzhchina.na.rashvat.2012.nnm.DVD9
Size: 6.99 Gb ( 7 331 410,00 KBytes ) - DVD-9
Enabled regions: 1, 2, 3, 4, 5, 6, 7, 8
VTS_01 :
Play Length: 01:41:03
Video: PAL 16:9 (720x576) VBR, Auto Letterboxed
Audio:
Russian (Dolby AC3, 6 ch)

MediaInfo

Общее
Полное имя : I:\Kino\Мужчина нарасхват\Muzhchina.na.rashvat.2012.nnm.DVD9\VIDEO_TS\VTS_01_3.VOB
Формат : MPEG-PS
Размер файла : 1024 Мбайт
Продолжительность : 14 м.
Общий поток : 9601 Кбит/сек
Видео
Идентификатор : 224 (0xE0)
Формат : MPEG Video
Версия формата : Version 2
Профиль формата : Main@Main
Параметр BVOP формата : Да
Параметр матрицы формата : Выборочная
Параметр GOP формата : M=3, N=15
Продолжительность : 14 м.
Битрейт : 8962 Кбит/сек
Максимальный битрейт : 9000 Кбит/сек
Ширина : 720 пикселей
Высота : 576 пикселей
Соотношение сторон : 16:9
Частота кадров : 25,000 кадров/сек
Стандарт вещания : PAL
Цветовое пространство : YUV
Субдискретизация насыщенности : 4:2:0
Битовая глубина : 8 бит
Тип развёртки : Чересстрочная
Порядок развёртки : Верхнее поле первое
Метод сжатия : С потерями
Бит/(Пиксели*Кадры) : 0.864
Размер потока : 956 Мбайт (93%)
Аудио
Идентификатор : 189 (0xBD)-128 (0x80)
Формат : AC-3
Формат/Информация : Audio Coding 3
Расширение режима : CM (complete main)
Режим смешивания : DVD-Video
Продолжительность : 14 м.
Вид битрейта : Постоянный
Битрейт : 448 Кбит/сек
Каналы : 6 каналов
Расположение каналов : Front: L C R, Side: L R, LFE
Частота : 48,0 КГц
Битовая глубина : 16 бит
Метод сжатия : С потерями
Задержка видео : -568 мс.
Размер потока : 47,8 Мбайт (5%)
Меню

Скриншоты меню

Скриншоты:
Время раздачи: С 09:00 до 24:00 мск

[Цитировать]



Показать сообщения:    

Текущее время: 08-Дек 09:01

Часовой пояс: UTC + 3


Вы не можете начинать темы
Вы не можете отвечать на сообщения
Вы не можете редактировать свои сообщения
Вы не можете удалять свои сообщения
Вы не можете голосовать в опросах
Вы не можете прикреплять файлы к сообщениям
Вы не можете скачивать файлы

!ВНИМАНИЕ!
Сайт не предоставляет электронные версии произведений, а занимается лишь коллекционированием и каталогизацией ссылок, присылаемых и публикуемых на форуме нашими читателями. Если вы являетесь правообладателем какого-либо представленного материала и не желаете, чтобы ссылка на него находилась в нашем каталоге, свяжитесь с нами, и мы незамедлительно удалим ее. Файлы для обмена на трекере предоставлены пользователями сайта, и администрация не несет ответственности за их содержание. Просьба не заливать файлы, защищенные авторскими правами, а также файлы нелегального содержания!