[ Сегодня идет свободное скачивание без начисления Download ]


Статистика раздачи
Нет
 
   
 
Top  
 
 
Голый пистолет: из архивов полиции! / The Naked Gun: From the Files of Police Squad!«You've read the ad, now see the movie!»
Год выпуска: 1988
Страна: США
Производство: Paramount Pictures
Жанр: Боевик, Мелодрама, Комедия, Криминал
Режиссер: Дэвид Цукер
В ролях: Лесли Нильсен, Присцилла Пресли, Рикардо Монтальбан, Джордж Кеннеди, О. Джей Симпсон, Рэй Берк, Сюзан Бобьян, Нэнси Марчанд, Джаннетт Чарлз, Эд Уильямс, Джо Грифази, Лоуренс Тьерни
Перевод: Профессиональный (полное дублирование)
Субтитры: Отсутствуют
Описание: Самый некомпетентный полицейский, лейтенант Фрэнк Дребин, должен в одиночку противостоять международному заговору, цель которого — погубить королеву Елизавету II. Ко всеобщему удивлению и радости, глупейший из глупых лейтенант Дребин разберётся со всеми врагами Её Величества так лихо, как не снилось и знаменитому агенту 007.
[kp]4067[/kp] [imdb]tt0095705[/imdb]
Качество: HDRip
Продолжительность: 01:24:57
Формат: AVI
Видео кодек: XviD
Аудио кодек: AC3
Видео: 720x384 (1,875:1), 23,976 fps, XviD ~2063 kbps avg, 0,311 bit/pixel
Аудио: 48 kHz, AC3, 6 ch, ~384.00 kbps avg
Премьера (мир): 2 декабря 1988

Media Info

Видео
Идентификатор                            : 0
Формат                                   : MPEG-4 Visual
Профиль формата                          : Advanced [email protected]
Параметр BVOP формата                    : 1
Параметр QPel формата                    : Нет
Параметр GMC формата                     : Без точки перехода
Параметр матрицы формата                 : Default (MPEG)
Идентификатор кодека                     : XVID
Идентификатор кодека/Подсказка           : XviD
Продолжительность                        : 1 ч. 24 м.
Битрейт                                  : 2063 Кбит/сек
Ширина                                   : 720 пикселей
Высота                                   : 384 пикселя
Соотношение сторон                       : 16:9
Соотношение сторон в оригинале           : 1,875
Частота кадров                           : 23,976 кадра/сек
Цветовое пространство                    : YUV
Субдискретизация насыщенности            : 4:2:0
Битовая глубина                          : 8 бит
Тип развёртки                            : Прогрессивная
Метод сжатия                             : С потерями
Бит/(Пиксели*Кадры)                      : 0.311
Размер потока                            : 1,22 Гбайт (84%)
Библиотека кодирования                   : XviD 1.1.2 (UTC 2006-11-01)
Аудио
Идентификатор                            : 1
Формат                                   : AC-3
Формат/Информация                        : Audio Coding 3
Расширение режима                        : CM (complete main)
Идентификатор кодека                     : 2000
Продолжительность                        : 1 ч. 24 м.
Вид битрейта                             : Постоянный
Битрейт                                  : 384 Кбит/сек
Каналы                                   : 6 каналов
Расположение каналов                     : Front: L C R, Side: L R, LFE
Частота                                  : 48,0 КГц
Битовая глубина                          : 16 бит
Метод сжатия                             : С потерями
Размер потока                            : 233 Мбайт (16%)
Выравнивание                             : Разделение по промежуткам
Продолжительность промежутка             : 42  мс. (1,00 видеокадр)
Время предзагрузки промежутка            : 500  мс.

Скриншоты



[Цитировать]



Показать сообщения:    

Текущее время: 05-Дек 17:38

Часовой пояс: UTC + 3


Вы не можете начинать темы
Вы не можете отвечать на сообщения
Вы не можете редактировать свои сообщения
Вы не можете удалять свои сообщения
Вы не можете голосовать в опросах
Вы не можете прикреплять файлы к сообщениям
Вы не можете скачивать файлы

!ВНИМАНИЕ!
Сайт не предоставляет электронные версии произведений, а занимается лишь коллекционированием и каталогизацией ссылок, присылаемых и публикуемых на форуме нашими читателями. Если вы являетесь правообладателем какого-либо представленного материала и не желаете, чтобы ссылка на него находилась в нашем каталоге, свяжитесь с нами, и мы незамедлительно удалим ее. Файлы для обмена на трекере предоставлены пользователями сайта, и администрация не несет ответственности за их содержание. Просьба не заливать файлы, защищенные авторскими правами, а также файлы нелегального содержания!