[ Сегодня идет свободное скачивание без начисления Download ]


Статистика раздачи
Нет
 
   
 
Top  
 
 
-Агнозия / Agnosia (2010) HDRip
«Загадочная болезнь. Семейная тайна. Безумная любовь.»
-- Русское название: Агнозия
Оригинальное название: Agnosia
Год выпуска: 2010
Страна: Испания | Roxbury Pictures, Telecinco Cinema
Жанр: триллер, драма--Описание фильма:
Дочь богатого промышленника Жоана Прац страдает странным заболеванием агнозией. Ее зрение и слух в полном порядке, но мозг не способен формировать понятные аудиовизуальные образы на основе сигналов, поступающих из внешнего мира. При этом только ей известен важный промышленный секрет, унаследованный от отца. Вскоре она становится жертвой тщательно продуманного заговора, цель которого — вырвать у Жоаны тайну, воспользовавшись ее недугом. К несчастью, измученная болезнью девушка не может определить личность злоумышленника. Им может оказаться и ее жених Карлес, и молодой и порывистый слуга Висент…--Режиссер: Эудженио Мира
Актеры: Эдуардо Норьега, Феликс Гомес, Барбара Гоэнага, Мартина Гедек, Джек Тейлор, Серхи Матеу, Анна Саун, Нико Байксас, Сантьяго Понс, Мигель Берланга...
Продолжительность: 01:50:01
Перевод: Многоголосый закадровый (лицензия)
Релиз группа: IronClub

Дата мировой премьеры: 26 сентября 2010
Дата выхода DVD релиза: 26 февраля 2013, «Вольга»-Видеокодек: Xvid
Битрейт видео: ~1630 kbps
Размер кадра: 720*304
Качество видео: HDRip
Аудиокодек: AC3 5.1
Битрейт аудио: 256 kbps

MediaInfo:

General
Complete name                            : :\\Agnozija.2010.P.HDRip.avi
Format                                   : AVI
Format/Info                              : Audio Video Interleave
File size                                : 1.46 GiB
Duration                                 : 1h 50mn
Overall bit rate                         : 1 895 Kbps
Movie name                               : Agnozija.2010.P.HDRip
Genre                                    : Drama | Thriller
Writing application                      : VirtualDubMod 1.5.10.2 (build 2540/release)
Original source form/Name                : Movie
Video
ID                                       : 0
Format                                   : MPEG-4 Visual
Format profile                           : Advanced Simple@L5
Format settings, BVOP                    : 1
Format settings, QPel                    : No
Format settings, GMC                     : No warppoints
Format settings, Matrix                  : Custom
Codec ID                                 : XVID
Codec ID/Hint                            : XviD
Duration                                 : 1h 50mn
Bit rate                                 : 1 630 Kbps
Width                                    : 720 pixels
Height                                   : 304 pixels
Display aspect ratio                     : 2.35:1
Frame rate                               : 23.976 fps
Color space                              : YUV
Chroma subsampling                       : 4:2:0
Bit depth                                : 8 bits
Scan type                                : Progressive
Compression mode                         : Lossy
Bits/(Pixel*Frame)                       : 0.311
Stream size                              : 1.25 GiB (86%)
Writing library                          : XviD 1.2.1 (UTC 2008-12-04)
Audio
ID                                       : 1
Format                                   : AC-3
Format/Info                              : Audio Coding 3
Mode extension                           : CM (complete main)
Format settings, Endianness              : Big
Codec ID                                 : 2000
Duration                                 : 1h 50mn
Bit rate mode                            : Constant
Bit rate                                 : 256 Kbps
Channel(s)                               : 6 channels
Channel positions                        : Front: L C R, Side: L R, LFE
Sampling rate                            : 48.0 KHz
Bit depth                                : 16 bits
Compression mode                         : Lossy
Stream size                              : 201 MiB (14%)
Alignment                                : Split accross interleaves
Interleave, duration                     : 42 ms (1.00 video frame)
Interleave, preload duration             : 500 ms
Скриншоты: Время раздачи: 24/7 до первых 3-х скачавших

[Цитировать]



Показать сообщения:    

Текущее время: 11-Дек 01:24

Часовой пояс: UTC + 3


Вы не можете начинать темы
Вы не можете отвечать на сообщения
Вы не можете редактировать свои сообщения
Вы не можете удалять свои сообщения
Вы не можете голосовать в опросах
Вы не можете прикреплять файлы к сообщениям
Вы не можете скачивать файлы

!ВНИМАНИЕ!
Сайт не предоставляет электронные версии произведений, а занимается лишь коллекционированием и каталогизацией ссылок, присылаемых и публикуемых на форуме нашими читателями. Если вы являетесь правообладателем какого-либо представленного материала и не желаете, чтобы ссылка на него находилась в нашем каталоге, свяжитесь с нами, и мы незамедлительно удалим ее. Файлы для обмена на трекере предоставлены пользователями сайта, и администрация не несет ответственности за их содержание. Просьба не заливать файлы, защищенные авторскими правами, а также файлы нелегального содержания!