[ Сегодня идет свободное скачивание без начисления Download ]


Статистика раздачи
Нет
 
   
 
Top  
 
 
Руби Спаркс / Ruby Sparks-«Невероятная история любви, ставшая реальностью»- Год выпуска: 2012
Страна: США
Жанр: фэнтези, драма, приключения
Продолжительность: 01:44:06
Перевод: профессиональный (полное дублирование)
Оригинальная аудиодорожка: английский
Русские субтитры: есть
Навигация по главам: есть-Режиссер: Джонатан Дэйтон / Jonathan Dayton, Валери Фэрис / Valerie Faris-В ролях:
Пол Дано (Calvin Weir-Fields), Зои Казан (Ruby Sparks), Антонио Бандерас (Mort), Аннетт Бенинг (Gertrude), Стив Куган (Langdon Tharp), Эллиот Гулд (Dr. Rosenthal), Крис Мессина (Harry), Аасиф Мандви (Cyrus Modi), Тони Тракс (Susie), Дебора Энн Уолл (Lila), Алиа Шокат (Mabel), Джейн Энн Томас (Saskia)-Описание:
Молодой, но уже успешный писатель переживает творческие и душевные муки: новый роман никак не выходит, музы все нет, да и вообще с девушками как-то не клеится.
И вот, призвав на помощь остатки своей фантазии, Кэлвин придумывает себе девушку по имени Руби Спаркс - умницу, красавицу, спортсменку, короче говоря, идеал, а спустя неделю... обнаруживает этот идеал из плоти и крови на своем собственном диване.
Уходить Руби явно не собирается, но вот кем она окажется - Галатеей или Белочкой?..-Доп. информация: Kinopoisk | IMDB-Качество : BDRip-AVC
Контейнер: MKV
Видео кодек: H.264
Аудио кодек: AC3
Видео: H.264, 1056x572, 23.976 fps, ~3106 kbps, Bits/(Pixel*Frame):0.214
Аудио 1: Русский: 48 kHz, AC3, 3/2 (L,C,R,l,r) + LFE ch, ~ 448.00 kbps
Аудио 2: Английский: 48 kHz, AC3, 3/2 (L,C,R,l,r) + LFE ch, ~ 448.00 kbps
Формат субтитров: softsub (SRT) | русские (надписи и пр.), русские (полные), английские (полные и SDH)

Скриншоты

- -Rip vs Source -Rip vs Source

MediaInfo | x264

x264

x264 [info]: frame I:1014 Avg QP:15.76 size: 99957x264 [info]: frame P:28036 Avg QP:19.08 size: 33083x264 [info]: frame B:120709 Avg QP:20.59 size: 11566x264 [info]: consecutive B-frames: 1.3% 1.2% 4.9% 8.5% 14.5% 54.8% 5.8% 1.1% 1.7% 1.6% 2.5% 2.2%x264 [info]: mb I I16..4: 5.8% 79.9% 14.3%x264 [info]: mb P I16..4: 0.5% 7.7% 0.7% P16..4: 28.2% 36.6% 17.0% 3.0% 0.2% skip: 6.0%x264 [info]: mb B I16..4: 0.0% 0.5% 0.1% B16..8: 39.7% 21.6% 4.3% direct: 5.1% skip:28.7% L0:46.4% L1:45.4% BI: 8.1%x264 [info]: 8x8 transform intra:84.2% inter:57.1%x264 [info]: direct mvs spatial:98.7% temporal:1.3%x264 [info]: coded y,uvDC,uvAC intra: 91.9% 85.8% 68.8% inter: 30.2% 19.3% 7.0%x264 [info]: i16 v,h,dc,p: 31% 19% 7% 44%x264 [info]: i8 v,h,dc,ddl,ddr,vr,hd,vl,hu: 8% 6% 8% 11% 15% 15% 14% 12% 12%x264 [info]: i4 v,h,dc,ddl,ddr,vr,hd,vl,hu: 10% 6% 5% 10% 17% 16% 14% 12% 12%x264 [info]: i8c dc,h,v,p: 44% 21% 17% 18%x264 [info]: Weighted P-Frames: Y:2.6% UV:1.3%x264 [info]: ref P L0: 44.8% 5.2% 16.6% 8.4% 6.5% 5.1% 4.2% 2.5% 2.1% 1.8% 1.5% 1.3% 0.1% 0.0%x264 [info]: ref B L0: 64.5% 14.1% 7.6% 4.0% 2.9% 2.3% 1.9% 1.1% 0.9% 0.5% 0.2%x264 [info]: ref B L1: 90.5% 9.5%x264 [info]: kb/s:3105.84
encoded 149759 frames, 3.64 fps, 3105.84 kb/s
GeneralUnique ID : 212979790503058808454382573533738211182 (0xA03A6A6547C7B0FEA8CB1E9D7146976E)Complete name : Ruby.Sparks.2012.barm.mkvFormat : MatroskaFormat version : Version 2File size : 2.91 GiBDuration : 1h 44mnOverall bit rate : 4 004 KbpsMovie name : Ruby Sparks 2012Encoded date : UTC 2013-02-26 18:49:49Writing application : mkvmerge v5.8.0 ('No Sleep / Pillow') built on Sep 2 2012 15:37:04Writing library : libebml v1.2.3 + libmatroska v1.3.0Attachment : Yes
VideoID : 1Format : AVCFormat/Info : Advanced Video CodecFormat profile : High@L4.0Format settings, CABAC : YesFormat settings, ReFrames : 12 framesCodec ID : V_MPEG4/ISO/AVCDuration : 1h 44mnBit rate : 3 106 KbpsWidth : 1 056 pixelsHeight : 572 pixelsDisplay aspect ratio : 1.85:1Frame rate mode : ConstantFrame rate : 23.976 fpsColor space : YUVChroma subsampling : 4:2:0Bit depth : 8 bitsScan type : ProgressiveBits/(Pixel*Frame) : 0.214Stream size : 2.20 GiB (76%)Title : Ruby SparksWriting library : x264 core 129 r2245 bc13772Encoding settings : cabac=1 / ref=12 / deblock=1:-3:-3 / analyse=0x3:0x133 / me=umh / subme=11 / psy=1 / psy_rd=1.05:0.00 / mixed_ref=1 / me_range=32 / chroma_me=1 / trellis=2 / 8x8dct=1 / cqm=0 / deadzone=21,11 / fast_pskip=0 / chroma_qp_offset=-2 / threads=6 / lookahead_threads=1 / sliced_threads=0 / nr=0 / decimate=0 / interlaced=0 / bluray_compat=0 / constrained_intra=0 / bframes=11 / b_pyramid=2 / b_adapt=2 / b_bias=0 / direct=3 / weightb=1 / open_gop=0 / weightp=2 / keyint=250 / keyint_min=23 / scenecut=40 / intra_refresh=0 / rc_lookahead=60 / rc=2pass / mbtree=0 / bitrate=3106 / ratetol=1.0 / qcomp=0.60 / qpmin=0 / qpmax=69 / qpstep=4 / cplxblur=20.0 / qblur=0.5 / vbv_maxrate=25000 / vbv_bufsize=31250 / nal_hrd=none / ip_ratio=1.40 / pb_ratio=1.30 / aq=2:0.80 / zones=143347,149758,q=30Language : EnglishDefault : YesForced : NoMatrix coefficients : BT.709
Audio #1ID : 2Format : AC-3Format/Info : Audio Coding 3Mode extension : CM (complete main)Format settings, Endianness : BigCodec ID : A_AC3Duration : 1h 44mnBit rate mode : ConstantBit rate : 448 KbpsChannel(s) : 6 channelsChannel positions : Front: L C R, Side: L R, LFESampling rate : 48.0 KHzBit depth : 16 bitsCompression mode : LossyStream size : 334 MiB (11%)Title : Dubljaz, 48 kHz, AC3, 3/2 (L,C,R,l,r) + LFE ch, ~ 448.00 kbpsLanguage : RussianDefault : YesForced : No
Audio #2ID : 3Format : AC-3Format/Info : Audio Coding 3Mode extension : CM (complete main)Format settings, Endianness : BigCodec ID : A_AC3Duration : 1h 44mnBit rate mode : ConstantBit rate : 448 KbpsChannel(s) : 6 channelsChannel positions : Front: L C R, Side: L R, LFESampling rate : 48.0 KHzBit depth : 16 bitsCompression mode : LossyStream size : 334 MiB (11%)Title : Original, 48 kHz, AC3, 3/2 (L,C,R,l,r) + LFE ch, ~ 448.00 kbpsLanguage : EnglishDefault : NoForced : No
Text #1ID : 4Format : UTF-8Codec ID : S_TEXT/UTF8Codec ID/Info : UTF-8 Plain TextTitle : ForcedLanguage : RussianDefault : YesForced : No
Text #2ID : 5Format : UTF-8Codec ID : S_TEXT/UTF8Codec ID/Info : UTF-8 Plain TextTitle : BDLanguage : RussianDefault : NoForced : No
Text #3ID : 6Format : UTF-8Codec ID : S_TEXT/UTF8Codec ID/Info : UTF-8 Plain TextLanguage : EnglishDefault : NoForced : No
Text #4ID : 7Format : UTF-8Codec ID : S_TEXT/UTF8Codec ID/Info : UTF-8 Plain TextTitle : SDHLanguage : EnglishDefault : NoForced : No
Menu00:00:00.000 : en:Chapter 100:06:06.699 : en:Chapter 200:10:14.989 : en:Chapter 300:13:31.227 : en:Chapter 400:16:21.480 : en:Chapter 500:20:16.840 : en:Chapter 600:23:11.223 : en:Chapter 700:28:19.531 : en:Chapter 800:32:21.731 : en:Chapter 900:35:40.805 : en:Chapter 1000:39:57.478 : en:Chapter 1100:43:04.540 : en:Chapter 1200:46:10.851 : en:Chapter 1300:51:42.265 : en:Chapter 1400:55:39.377 : en:Chapter 1500:58:41.726 : en:Chapter 1601:02:51.476 : en:Chapter 1701:07:18.492 : en:Chapter 1801:13:06.465 : en:Chapter 1901:18:41.591 : en:Chapter 2001:24:02.996 : en:Chapter 2101:32:48.229 : en:Chapter 2201:37:07.655 : en:Chapter 2301:39:40.474 : en:Chapter 24

Дополнительно о фильме

  • Зои Казан, исполнившая роль Руби, так же написала сценарий к фильму. Дедушка Зои — Элиа Казан, режиссер фильма «В порту» (1954). Ее мать написала сценарий для фильма «Загадочная история Бенджамина Баттона» (2008). А ее отец — сценарист фильма «Изнанка судьбы» (1990).
  • Всякий раз, когда Пол нес Зои на плече, ее подменял дублер.

[Цитировать]



Показать сообщения:    

Текущее время: 07-Дек 21:21

Часовой пояс: UTC + 3


Вы не можете начинать темы
Вы не можете отвечать на сообщения
Вы не можете редактировать свои сообщения
Вы не можете удалять свои сообщения
Вы не можете голосовать в опросах
Вы не можете прикреплять файлы к сообщениям
Вы не можете скачивать файлы

!ВНИМАНИЕ!
Сайт не предоставляет электронные версии произведений, а занимается лишь коллекционированием и каталогизацией ссылок, присылаемых и публикуемых на форуме нашими читателями. Если вы являетесь правообладателем какого-либо представленного материала и не желаете, чтобы ссылка на него находилась в нашем каталоге, свяжитесь с нами, и мы незамедлительно удалим ее. Файлы для обмена на трекере предоставлены пользователями сайта, и администрация не несет ответственности за их содержание. Просьба не заливать файлы, защищенные авторскими правами, а также файлы нелегального содержания!