[ Сегодня идет свободное скачивание без начисления Download ]


Статистика раздачи
Нет
 
   
 
 
 
Голый пистолет 2?: запах страха / The Naked Gun 2?: The Smell of Fear «Фрэнк Дребин вернулся. Просто смиритесь с этим.»
Год выпуска: 1991
Страна: США
Производство: Paramount Pictures
Жанр: Боевик, Комедия, Криминал
Режиссер: Дэвид Цукер
В ролях: Лесли Нилсен, Присцилла Пресли, Джордж Кеннеди, О. Джей Симпсон, Роберт Гуле, Ричард Гриффитс, Энтони Джеймс, Жаклин Брукс, Ллойд Бокнер, Тим О'Коннор, Питер Марк Ричмэн
Перевод: Оригинал (Английский)
Субтитры: Голландские, вшитые, не отключаемые
Описание: Как мы помним по первому «Голому пистолету», лейтенант Френк Дребин (Нилсен) обожает загадки. Почему мы все здесь живем? Есть ли жизнь после секса? Да, его не на шутку беспокоят глобальные проблемы, и самой большой из них является задача остановить злодея, замышляющего уничтожить весь мир. Итак, замечательная команда комиков снова на экране. Приготовьтесь посмеяться.
[kp]2388[/kp] [imdb]tt0102510[/imdb]
Качество: DVDRip
Продолжительность: 01:25:03
Формат: AVI
Видео кодек: XviD
Аудио кодек: AC3
Видео: 512x288 (16:9), 23,976 fps, XviD build ~700 kbps avg, 0.198 bit/pixel
Аудио: 48 kHz, AC3, 6 ch, ~448.00 kbps avg
Премьера (мир): 28 июня 1991

Media Info

Видео
Идентификатор                            : 0
Формат                                   : MPEG-4 Visual
Профиль формата                          : Advanced Simple@L5
Параметр BVOP формата                    : 1
Параметр QPel формата                    : Нет
Параметр GMC формата                     : Без точки перехода
Параметр матрицы формата                 : Default (H.263)
Режим смешивания                         : Сжатый битовый поток
Идентификатор кодека                     : XVID
Идентификатор кодека/Подсказка           : XviD
Продолжительность                        : 1 ч. 25 м.
Битрейт                                  : 700 Кбит/сек
Ширина                                   : 512 пикселей
Высота                                   : 288 пикселей
Соотношение сторон                       : 16:9
Частота кадров                           : 23,976 кадра/сек
Цветовое пространство                    : YUV
Субдискретизация насыщенности            : 4:2:0
Битовая глубина                          : 8 бит
Тип развёртки                            : Прогрессивная
Метод сжатия                             : С потерями
Бит/(Пиксели*Кадры)                      : 0.198
Размер потока                            : 425 Мбайт (61%)
Библиотека кодирования                   : XviD 62
Аудио
Идентификатор                            : 1
Формат                                   : AC-3
Формат/Информация                        : Audio Coding 3
Расширение режима                        : CM (complete main)
Идентификатор кодека                     : 2000
Продолжительность                        : 1 ч. 25 м.
Вид битрейта                             : Постоянный
Битрейт                                  : 448 Кбит/сек
Каналы                                   : 6 каналов
Расположение каналов                     : Front: L C R, Side: L R, LFE
Частота                                  : 48,0 КГц
Битовая глубина                          : 16 бит
Метод сжатия                             : С потерями
Размер потока                            : 273 Мбайт (39%)
Выравнивание                             : Разделение по промежуткам
Продолжительность промежутка             : 64  мс. (1,53 видеокадра)
Время предзагрузки промежутка            : 500  мс.

Скриншоты



[Цитировать]



Показать сообщения:    

Текущее время: 08-Дек 08:58

Часовой пояс: UTC + 3


Вы не можете начинать темы
Вы не можете отвечать на сообщения
Вы не можете редактировать свои сообщения
Вы не можете удалять свои сообщения
Вы не можете голосовать в опросах
Вы не можете прикреплять файлы к сообщениям
Вы не можете скачивать файлы

!ВНИМАНИЕ!
Сайт не предоставляет электронные версии произведений, а занимается лишь коллекционированием и каталогизацией ссылок, присылаемых и публикуемых на форуме нашими читателями. Если вы являетесь правообладателем какого-либо представленного материала и не желаете, чтобы ссылка на него находилась в нашем каталоге, свяжитесь с нами, и мы незамедлительно удалим ее. Файлы для обмена на трекере предоставлены пользователями сайта, и администрация не несет ответственности за их содержание. Просьба не заливать файлы, защищенные авторскими правами, а также файлы нелегального содержания!