[ Сегодня идет свободное скачивание без начисления Download ]


Статистика раздачи
Нет
 
   
 
Top  
 
 
Мой парень - ангел «Все парни, как парни, а...»
Страна: Россия
Жанр: фэнтези, мелодрама, комедия, приключения
Год выпуска: 2011
Продолжительность: 01:37:29-Перевод: Оригинал
Cубтитры: English
Оригинальная аудиодорожка: Russian-Режиссер: Вера Сторожева
В ролях: Артур Смольянинов, Анна Старшенбаум, Сергей Пускепалис, Екатерина Вуличенко, Иван Охлобыстин, Гоша Куценко, Никита Ефремов, Иван Макаревич, Андрей Леонов, Василий Степанов-Описание: XXI век. Мегаполис. Сотни, тысячи людей окружают тебя каждый день. Но ты даже и представить себе не можешь, что среди этой многоликой толпы прямо перед тобой может оказаться... Ангел. Студентка Саша с большим трудом верит, что такое бывает. Ангелу Серафиму приходится приложить немало усилий, чтобы доказать ей, что Ангелы существуют. Но он не учёл одного - если девушка тебе поверит, она, скорее всего, тебя полюбит. А разве можно влюбиться в Ангела?- -Качество: BDRip 1080p
Контейнер: MKV
Видео: H.264, 1920x1080, 23,976 fps, 14 Mbps
Аудио: Russian: DTS 5.1, 48 kHz, 1536 kbps avg
Формат субтитров: softsub (SRT)

MediaInfo

General
Unique ID : 173891153120679267168843719210916151372 (0x82D237C75F0BCE60BAB7D2DD0254804C)
Complete name : D:\My.boyfriend.Angel.2011.BDRip.1080p.mkv
Format : Matroska
File size : 10.6 GiB
Duration : 1h 37mn
Overall bit rate : 15.5 Mbps
Movie name : Мой парень - ангел
Encoded date : UTC 2012-04-03 18:58:51
Writing application : mkvmerge v5.1.0 ('And so it goes') built on Nov 28 2011 23:58:28
Writing library : libebml v1.2.3 + libmatroska v1.3.0
Video
ID : 1
Format : AVC
Format/Info : Advanced Video Codec
Format profile : High@L4.1
Format settings, CABAC : Yes
Format settings, ReFrames : 4 frames
Codec ID : V_MPEG4/ISO/AVC
Duration : 1h 37mn
Bit rate : 14.0 Mbps
Width : 1 920 pixels
Height : 1 080 pixels
Display aspect ratio : 16:9
Frame rate : 23.976 fps
Color space : YUV
Chroma subsampling : 4:2:0
Bit depth : 8 bits
Scan type : Progressive
Bits/(Pixel*Frame) : 0.282
Stream size : 9.32 GiB (88%)
Title : Мой парень - ангел
Writing library : x264 core 120 r2164 da19765
Encoding settings : cabac=1 / ref=4 / deblock=1:-3:-3 / analyse=0x3:0x113 / me=umh / subme=10 / psy=1 / psy_rd=1.00:0.00 / mixed_ref=1 / me_range=48 / chroma_me=1 / trellis=2 / 8x8dct=1 / cqm=0 / deadzone=21,11 / fast_pskip=0 / chroma_qp_offset=-2 / threads=12 / sliced_threads=0 / nr=0 / decimate=1 / interlaced=0 / bluray_compat=0 / constrained_intra=0 / bframes=8 / b_pyramid=2 / b_adapt=2 / b_bias=0 / direct=3 / weightb=1 / open_gop=0 / weightp=2 / keyint=230 / keyint_min=23 / scenecut=40 / intra_refresh=0 / rc_lookahead=40 / rc=2pass / mbtree=1 / bitrate=14000 / ratetol=1.0 / qcomp=0.60 / qpmin=0 / qpmax=69 / qpstep=4 / cplxblur=20.0 / qblur=0.5 / ip_ratio=1.40 / aq=1:1.00
Language : Russian
Audio
ID : 2
Format : DTS
Format/Info : Digital Theater Systems
Codec ID : A_DTS
Duration : 1h 37mn
Bit rate mode : Constant
Bit rate : 1 510 Kbps
Channel(s) : 6 channels
Channel positions : Front: L C R, Side: L R, LFE
Sampling rate : 48.0 KHz
Bit depth : 24 bits
Compression mode : Lossy
Stream size : 1.03 GiB (10%)
Title : DTS
Language : Russian
Text
ID : 3
Format : UTF-8
Codec ID : S_TEXT/UTF8
Codec ID/Info : UTF-8 Plain Text
Language : English
Menu
00:00:00.000 : ru:Chapter 01
00:05:09.976 : ru:Chapter 02
00:10:46.437 : ru:Chapter 03
00:14:54.894 : ru:Chapter 04
00:20:11.543 : ru:Chapter 05
00:26:51.818 : ru:Chapter 06
00:32:12.889 : ru:Chapter 07
00:36:35.067 : ru:Chapter 08
00:42:11.028 : ru:Chapter 09
00:47:47.864 : ru:Chapter 10
00:51:28.960 : ru:Chapter 11
00:55:38.418 : ru:Chapter 12
01:00:18.072 : ru:Chapter 13
01:06:59.473 : ru:Chapter 14
01:13:26.193 : ru:Chapter 15
01:20:13.767 : ru:Chapter 16
01:25:30.166 : ru:Chapter 17
01:31:22.310 : ru:Chapter 18

Скриншоты

[Цитировать]



Показать сообщения:    

Текущее время: 07-Дек 00:54

Часовой пояс: UTC + 3


Вы не можете начинать темы
Вы не можете отвечать на сообщения
Вы не можете редактировать свои сообщения
Вы не можете удалять свои сообщения
Вы не можете голосовать в опросах
Вы не можете прикреплять файлы к сообщениям
Вы не можете скачивать файлы

!ВНИМАНИЕ!
Сайт не предоставляет электронные версии произведений, а занимается лишь коллекционированием и каталогизацией ссылок, присылаемых и публикуемых на форуме нашими читателями. Если вы являетесь правообладателем какого-либо представленного материала и не желаете, чтобы ссылка на него находилась в нашем каталоге, свяжитесь с нами, и мы незамедлительно удалим ее. Файлы для обмена на трекере предоставлены пользователями сайта, и администрация не несет ответственности за их содержание. Просьба не заливать файлы, защищенные авторскими правами, а также файлы нелегального содержания!