[ Сегодня идет свободное скачивание без начисления Download ]


Статистика раздачи
Нет
 
   
 
Top  
 
 
Край
Страна: Россия
Жанр: Драма, военный, история
Год выпуска: 2010
Продолжительность: 02:03:33-Перевод: Не требуется
Cубтитры: Английские
Оригинальная аудиодорожка: Русский-Режиссер: Алeксей Учитeль
В ролях: Владимир Машков, Сергей Гармаш, Владас Багдонас, Александр Баширов, Юлия Пересильд, Анна Уколова, Семен Белоцерковский, Алексей Горбунов, Вячеслав Крикунов, Аньорка Штрехель
Описание: В августе 1945-го в далекий поселок с названием Крaй с войны возвращается бывший танкист Игнат, чья страсть - паровозы. Он узнает, что на уединенном острове с довоенных времен брошен немецкий паровоз, и принимается его восстанавливать. Но, оказывается, у паровоза уже есть имя - «Густав», и есть хозяйка - Эльза, дочь немецкого инженера, арестованного в начале войны. Да и для сельчан одержимый мечтой, свободный Игнат - чужак. Страсти закипают шекспировские, причем в них задействованы не только люди, но и несколько паровозов, почти живые существа, у каждого свое имя...- -Качество: BDRip 720p
Контейнер: MKV
Видео: MPEG-4 AVC,1280x720 at 24.000 fps 5.305 Mbps
Аудио: Русский, DTS 6 ch, 48,0 kHz, 1510 Кбит/с
Формат субтитров: softsub (SRT)

MediaInfo

General
Unique ID : 240315804445323529248042920126769958644 (0xB4CB23F089D853F9AF70613C5A568EF4)
Complete name : The Edge.2010.x264.BDRip720p.mkv
Format : Matroska
File size : 5.88 GiB
Duration : 2h 3mn
Overall bit rate : 6 817 Kbps
Encoded date : UTC 2011-02-18 05:11:10
Writing application : mkvmerge v4.4.0 ('Die Wiederkehr') built on Oct 31 2010 21:52:48
Writing library : libebml v1.0.0 + libmatroska v1.0.0
Video
ID : 1
Format : AVC
Format/Info : Advanced Video Codec
Format profile : High@L4.1
Format settings, CABAC : Yes
Format settings, ReFrames : 8 frames
Codec ID : V_MPEG4/ISO/AVC
Duration : 2h 3mn
Bit rate : 5 305 Kbps
Width : 1 280 pixels
Height : 720 pixels
Display aspect ratio : 16:9
Frame rate : 24.000 fps
Color space : YUV
Chroma subsampling : 4:2:0
Bit depth : 8 bits
Scan type : Progressive
Bits/(Pixel*Frame) : 0.240
Stream size : 4.46 GiB (76%)
Title : BDA
Writing library : x264 core 98 r1649 c54c47d
Encoding settings : cabac=1 / ref=8 / deblock=1:-3:-3 / analyse=0x3:0x133 / me=umh / subme=9 / psy=1 / psy_rd=1.00:0.00 / mixed_ref=1 / me_range=20 / chroma_me=1 / trellis=2 / 8x8dct=1 / cqm=0 / deadzone=21,11 / fast_pskip=1 / chroma_qp_offset=-2 / threads=6 / sliced_threads=0 / nr=0 / decimate=1 / interlaced=0 / constrained_intra=0 / bframes=3 / b_pyramid=0 / b_adapt=2 / b_bias=0 / direct=3 / weightb=1 / weightp=2 / keyint=250 / keyint_min=25 / scenecut=40 / intra_refresh=0 / rc_lookahead=50 / rc=2pass / mbtree=1 / bitrate=5305 / ratetol=1.0 / qcomp=0.60 / qpmin=10 / qpmax=51 / qpstep=4 / cplxblur=20.0 / qblur=0.5 / vbv_maxrate=50000 / vbv_bufsize=50000 / ip_ratio=1.40 / aq=1:1.00 / nal_hrd=none
Audio
ID : 2
Format : DTS
Format/Info : Digital Theater Systems
Codec ID : A_DTS
Duration : 2h 3mn
Bit rate mode : Constant
Bit rate : 1 510 Kbps
Channel(s) : 6 channels
Channel positions : Front: L C R, Side: L R, LFE
Sampling rate : 48.0 KHz
Bit depth : 24 bits
Compression mode : Lossy
Stream size : 1.30 GiB (22%)
Language : Russian
Text
ID : 3
Format : UTF-8
Codec ID : S_TEXT/UTF8
Codec ID/Info : UTF-8 Plain Text
Language : English
Menu
00:00:00.000 : en:00:00:00.000
00:09:48.375 : en:00:09:48.375
00:19:44.792 : en:00:19:44.792
00:30:58.417 : en:00:30:58.417
00:40:45.708 : en:00:40:45.708
00:49:51.000 : en:00:49:51.000
00:58:31.208 : en:00:58:31.208
01:10:37.917 : en:01:10:37.917
01:20:17.167 : en:01:20:17.167
01:30:46.000 : en:01:30:46.000
01:39:24.000 : en:01:39:24.000
01:47:04.542 : en:01:47:04.542

Скриншоты


[Цитировать]



Показать сообщения:    

Текущее время: 10-Дек 11:56

Часовой пояс: UTC + 3


Вы не можете начинать темы
Вы не можете отвечать на сообщения
Вы не можете редактировать свои сообщения
Вы не можете удалять свои сообщения
Вы не можете голосовать в опросах
Вы не можете прикреплять файлы к сообщениям
Вы не можете скачивать файлы

!ВНИМАНИЕ!
Сайт не предоставляет электронные версии произведений, а занимается лишь коллекционированием и каталогизацией ссылок, присылаемых и публикуемых на форуме нашими читателями. Если вы являетесь правообладателем какого-либо представленного материала и не желаете, чтобы ссылка на него находилась в нашем каталоге, свяжитесь с нами, и мы незамедлительно удалим ее. Файлы для обмена на трекере предоставлены пользователями сайта, и администрация не несет ответственности за их содержание. Просьба не заливать файлы, защищенные авторскими правами, а также файлы нелегального содержания!