[ Сегодня идет свободное скачивание без начисления Download ]


Статистика раздачи
Нет
 
   
 
Top  
 
 
Голый пистолет 33 1/3: Последний выпад / The Naked Gun 33 1/3: The Final Insult «The single most important filmmaking event since Naked Gun 2 1/2!»
Год выпуска: 1994
Страна: США
Производство: Paramount Pictures
Жанр: Боевик, Комедия, Криминал
Режиссер: Питер Сигал
В ролях: Лесли Нилсен, Присцилла Пресли, Джордж Кеннеди, О. Джей Симпсон, Фред Уорд, Кэтлин Фримэн, Энна Николь Смит, Эллен Грин, Пиа Задора, Джо Грифази
Перевод: Профессиональный (полное дублирование)
Субтитры: Отсутствуют
Описание: В тюрьму к известному бомбисту-террористу Рокко (Уорд) приходит представитель арабских террористов и предлагает ему и его мамаше совершить ужасающий теракт за 5 миллионов. Остановить его может только наш лейтенант Фрэнк Дребин (Нилсен), ушедший на пенсию и решающий брачные проблемы с супругой-адвокатессой. Дело в том, что они никак не могут сделать ребенка. Коллеги уговаривают Фрэнка вернуться на службу в полицию, из-за чего жена бросает его окончательно, и далее следует бесконечный поток шуток, приколов, пародийных ситуаций, в результате которых Фрэнк спасает от взрыва церемонию вручения "Оскаров".
[kp]1933[/kp] [imdb]tt0110622[/imdb]
Качество: DVDRip
Продолжительность: 01:22:31
Формат: AVI
Видео кодек: XviD
Аудио кодек: МР3
Видео: 688x384 (16:9), 23,976 fps, XviD ~1122 kbps avg, 0,177 bit/pixel
Аудио: 48 kHz, MP3, 2 ch, ~128.00 kbps avg
Премьера (мир):18 марта 1994
Премьера (РФ): 15 августа 1994, «Ист-Вест»

Media Info

Видео
Идентификатор                            : 0
Формат                                   : MPEG-4 Visual
Профиль формата                          : Advanced Simple@L5
Параметр BVOP формата                    : 1
Параметр QPel формата                    : Нет
Параметр GMC формата                     : Без точки перехода
Параметр матрицы формата                 : Default (MPEG)
Идентификатор кодека                     : XVID
Идентификатор кодека/Подсказка           : XviD
Продолжительность                        : 1 ч. 22 м.
Битрейт                                  : 1122 Кбит/сек
Ширина                                   : 688 пикселей
Высота                                   : 384 пикселя
Соотношение сторон                       : 16:9
Частота кадров                           : 23,976 кадра/сек
Цветовое пространство                    : YUV
Субдискретизация насыщенности            : 4:2:0
Битовая глубина                          : 8 бит
Тип развёртки                            : Прогрессивная
Метод сжатия                             : С потерями
Бит/(Пиксели*Кадры)                      : 0.177
Размер потока                            : 662 Мбайт (89%)
Библиотека кодирования                   : XviD 1.2.1 (UTC 2008-12-04)
Аудио
Идентификатор                            : 1
Формат                                   : MPEG Audio
Версия формата                           : Version 1
Профиль формата                          : Layer 3
Идентификатор кодека                     : 55
Идентификатор кодека/Подсказка           : MP3
Продолжительность                        : 1 ч. 22 м.
Вид битрейта                             : Постоянный
Битрейт                                  : 128 Кбит/сек
Каналы                                   : 2 канала
Частота                                  : 48,0 КГц
Метод сжатия                             : С потерями
Размер потока                            : 75,6 Мбайт (10%)
Выравнивание                             : Соединение по промежуткам
Продолжительность промежутка             : 42  мс. (1,00 видеокадр)
Время предзагрузки промежутка            : 504  мс.
Библиотека кодирования                   : LAME3.97
Настройки программы                      : -m s -V 4 -q 2 -lowpass 17 -b 128

Скриншоты



[Цитировать]



Показать сообщения:    

Текущее время: 09-Дек 14:39

Часовой пояс: UTC + 3


Вы не можете начинать темы
Вы не можете отвечать на сообщения
Вы не можете редактировать свои сообщения
Вы не можете удалять свои сообщения
Вы не можете голосовать в опросах
Вы не можете прикреплять файлы к сообщениям
Вы не можете скачивать файлы

!ВНИМАНИЕ!
Сайт не предоставляет электронные версии произведений, а занимается лишь коллекционированием и каталогизацией ссылок, присылаемых и публикуемых на форуме нашими читателями. Если вы являетесь правообладателем какого-либо представленного материала и не желаете, чтобы ссылка на него находилась в нашем каталоге, свяжитесь с нами, и мы незамедлительно удалим ее. Файлы для обмена на трекере предоставлены пользователями сайта, и администрация не несет ответственности за их содержание. Просьба не заливать файлы, защищенные авторскими правами, а также файлы нелегального содержания!