[ Сегодня идет свободное скачивание без начисления Download ]


Статистика раздачи
Нет
 
   
 
Top  
 
 
-Адская кухня 2 (Россия) (1-7 серии из ...) (2013) SATRip- Режиссер / Телекомпания:
Русское название: Адская кухня 2 (Россия)
Год выпуска: 2013
Жанр: Кулинарное шоу
Ведущие: Арам Мнацаканов, Дарья Цивина, Сергей Гусовский
Описание:
"Рен ТВ" вновь разжигает огненные печи русской версии суперпопулярного во всем мире кулинарного шоу "Адская кухня"! Зрителя вновь ждет беспощадная битва кулинаров со всей страны на самой жаркой, перченой и острой кухне на отечественном ТВ - "Адской кухне"! Их 16 - шефов и су-шефов со всей страны. Они прошли жесткий отбор и доказали, что уже претендуют на звание лучших из лучших и готовы сорвать главный куш проекта - 3 миллиона рублей!
«Адская кухня» — российская адаптация американского кулинарного шоу «Hell's Kitchen». Работа на кухне Арама Мнацаканова — серьёзное испытание, но тот, кто сможет его пройти, уверенно сможет называть себя сильнейшим поваром страны. Он станет настоящим шеф-поваром, пригласить которого на работу захотят ведущие рестораны России.
Продолжительность: ~ 01:20:00 серия
Качество видео: SATRip
Видеокодек: XviD
Битрейт видео: ~ 1500 Кбит/сек
Размер кадра: 640x480
Аудио: Русский, МР3, 2 ch, 128 Кбит/с

Внимание! Раздача ведётся путём добавления новых серий. Описание обновления торрента:

Внимание!
Раздача ведётся путём добавления новых серий; при каждом добавлении создётся новый торрент. Чтобы начать докачку новой серии, пользователям необходимо сделать следующее:
(1) остановить скачивание,
(2) удалить старый торрент у себя из клиента (старые серии удалять не надо),
(3) скачать новый торрент и запустить его у себя в клиенте вместо старого, при этом указать клиенту путь в старую папку куда и должно происходить скачивание новых серий.
Ваш клиент при этом должен произвести хеширование (проверку) старой папки (если не производит сам - помогите ему сделать это), и будет докачивать только те серии которых у вас ещё нет. Старые серии при этом не удаляются, а продолжают раздаваться!
Eсли вы уже удалили старые серии, то предотвратить повторную закачку старых серий можно, отжав галочку в соответсвующих местах при запуске нового торрента. По возможности, желательно не удалять старые серии как можно дольше чтобы релизёр не столько продолжал раздавать старые серии, а смог сконцентрироваться на новых.

MediaInfo

Общее
Полное имя                               : E:\Раздачи\Обновляемые\Adskaya.kuhnya.2.sezon.2013.SATRip\Adskaya.kuhnya.01.(17.01.2013).SATRip.avi
Формат                                   : AVI
Формат/Информация                        : Audio Video Interleave
Размер файла                             : 930 Мбайт
Продолжительность                        : 1 ч. 19 м.
Общий поток                              : 1639 Кбит/сек
Программа кодирования                    : VirtualDubMod 1.5.10.2 (build 2540/release)
Библиотека кодирования                   : VirtualDub build 29808/release
Видео
Идентификатор                            : 0
Формат                                   : MPEG-4 Visual
Профиль формата                          : Advanced Simple@L5
Параметр BVOP формата                    : 2
Параметр QPel формата                    : Нет
Параметр GMC формата                     : Без точки перехода
Параметр матрицы формата                 : Default (MPEG)
Идентификатор кодека                     : XVID
Идентификатор кодека/Подсказка           : XviD
Продолжительность                        : 1 ч. 19 м.
Битрейт                                  : 1501 Кбит/сек
Ширина                                   : 640 пикселей
Высота                                   : 480 пикселей
Соотношение сторон                       : 4:3
Частота кадров                           : 25,000 кадров/сек
Цветовое пространство                    : YUV
Субдискретизация насыщенности            : 4:2:0
Битовая глубина                          : 8 бит
Тип развёртки                            : Прогрессивная
Метод сжатия                             : С потерями
Бит/(Пиксели*Кадры)                      : 0.195
Размер потока                            : 852 Мбайт (92%)
Библиотека кодирования                   : XviD 64
Аудио
Идентификатор                            : 1
Формат                                   : MPEG Audio
Версия формата                           : Version 1
Профиль формата                          : Layer 3
Режим                                    : Joint stereo
Идентификатор кодека                     : 55
Идентификатор кодека/Подсказка           : MP3
Продолжительность                        : 1 ч. 19 м.
Вид битрейта                             : Постоянный
Битрейт                                  : 128 Кбит/сек
Каналы                                   : 2 канала
Частота                                  : 48,0 КГц
Метод сжатия                             : С потерями
Размер потока                            : 72,6 Мбайт (8%)
Выравнивание                             : Соединение по промежуткам
Продолжительность промежутка             : 40  мс. (1,00 видеокадр)
Время предзагрузки промежутка            : 504  мс.
Скриншоты:

-Время раздачи: 9.00 - 23.00 (по мере возможности...)

[Цитировать]



Показать сообщения:    

Текущее время: 07-Дек 11:44

Часовой пояс: UTC + 3


Вы не можете начинать темы
Вы не можете отвечать на сообщения
Вы не можете редактировать свои сообщения
Вы не можете удалять свои сообщения
Вы не можете голосовать в опросах
Вы не можете прикреплять файлы к сообщениям
Вы не можете скачивать файлы

!ВНИМАНИЕ!
Сайт не предоставляет электронные версии произведений, а занимается лишь коллекционированием и каталогизацией ссылок, присылаемых и публикуемых на форуме нашими читателями. Если вы являетесь правообладателем какого-либо представленного материала и не желаете, чтобы ссылка на него находилась в нашем каталоге, свяжитесь с нами, и мы незамедлительно удалим ее. Файлы для обмена на трекере предоставлены пользователями сайта, и администрация не несет ответственности за их содержание. Просьба не заливать файлы, защищенные авторскими правами, а также файлы нелегального содержания!