[ Сегодня идет свободное скачивание без начисления Download ]


Статистика раздачи
Нет
 
   
 
Top  
 
 
[sh]Дьявол и Дэниэл Уэбстер / Shortcut to Happiness[/sh][sh]«Труднее ли противостоять дьяволу , если дьявол - женщина?..»[/sh]
[sh]Год выпуска[/sh]: 2004
[sh]Страна[/sh]: США
[sh]Производство[/sh]: Yari Film Group (YFG), Cutting Edge Entertainment
[sh]Жанр[/sh]: Фэнтези, драма, комедия
[sh]Режиссер[/sh]: Алек Болдуин
[sh]В ролях[/sh]: Энтони Хопкинс, Алек Болдуин, Дженнифер Лав Хьюитт, Кен Мартон, Фрэнк Сиверо, Дэн Эйкройд, Грегг Белло, Ким Кэтролл, Джон Сэвидж, Аль Палагония
[sh]Перевод[/sh]: Дубляж, Оригинал
[sh]Субтитры[/sh]: Английские
[sh]Описание[/sh]: Начинающий Нью-Йоркский писатель заключает сделку с Дьяволом с тем, чтобы добиться литературного успеха и стать автором бестселлеров в обмен на свою душу по истечении десяти лет.
Года пролетают как часы, и вскоре преуспевающий писатель вынужден молить о помощи Дэниэла Уэбстера, искусного адвоката и главу самой преуспевающей издательской фирмы в Нью-Йорке, чтобы избавиться от заключённой сделки. Результатом этого станет захватывающая, битва умов и речей на судебном процессе между Дьяволом и Дэниэлом Уэбстером, ставкой на котором будет душа писателя.

[kp]9861[/kp] [imdb]tt0263265[/imdb]
[sh]Доп. информация:[/sh]
бюджет: $35 000 000
сборы в мире: $605 294
сборы в России: $331 218
зрители: 58 тыс.

[sh]Качество[/sh]: HDRip-AVC
[sh]Продолжительность[/sh]: 01:41:49 часа.
[sh]Формат[/sh]: MKV
[sh]Видео кодек[/sh]: H.264
[sh]Аудио кодек[/sh]: AC3
[sh]Видео[/sh]:1024x572 (16:9), 23.976 fps, x264 ~2703 kbps avg, 0.192 bit/pixel
[sh]Аудио[/sh]: 48 kHz, AC3 Dolby Digital, 3/2 (L,C,R,l,r) + LFE ch, ~448 kbps avg [Дубляж]
[sh]Аудио #2[/sh]: 48 kHz, AC3 Dolby Digital, 3/2 (L,C,R,l,r) + LFE ch, ~448 kbps avg [Оригинал]
[sh]Премьера (мир)[/sh]: 20 февраля 2003
[sh]Премьера (РФ)[/sh]: 13 сентября 2007, «Пирамида»

Media Info

Общее
Уникальный идентификатор                 : 228654618956843719563329939508152960967 (0xAC05471B17991F2EBF67554F7C1F07C7)
Полное имя                               : D:\Dyavol.i.Deniel.Uebster2004.x264.HDRip(AVC).mkv
Формат                                   : Matroska
Версия формата                           : Version 2
Размер файла                             : 2,56 Гбайт
Продолжительность                        : 1 ч. 41 м.
Общий поток                              : 3599 Кбит/сек
Дата кодирования                         : UTC 2012-08-19 19:03:56
Программа кодирования                    : mkvmerge v5.0.1 ('Es ist Sommer') built on Nov  6 2011 16:23:40
Библиотека кодирования                   : libebml v1.2.2 + libmatroska v1.3.0
Видео
Идентификатор                            : 1
Формат                                   : AVC
Формат/Информация                        : Advanced Video Codec
Профиль формата                          : [email protected]
Параметр CABAC формата                   : Да
Параметр ReFrames формата                : 7 кадров
Идентификатор кодека                     : V_MPEG4/ISO/AVC
Продолжительность                        : 1 ч. 41 м.
Битрейт                                  : 2703 Кбит/сек
Ширина                                   : 1024 пикселя
Высота                                   : 572 пикселя
Соотношение сторон                       : 16:9
Режим частоты кадров                     : Постоянный
Частота кадров                           : 23,976 кадра/сек
Цветовое пространство                    : YUV
Субдискретизация насыщенности            : 4:2:0
Битовая глубина                          : 8 бит
Тип развёртки                            : Прогрессивная
Бит/(Пиксели*Кадры)                      : 0.192
Размер потока                            : 1,87 Гбайт (73%)
Библиотека кодирования                   : x264 core 125 r2200 999b753
Настройки программы                      : cabac=1 / ref=7 / deblock=1:0:0 / analyse=0x3:0x133 / me=umh / subme=10 / psy=1 / psy_rd=1.00:0.00 / mixed_ref=1 / me_range=32 / chroma_me=1 / trellis=2 / 8x8dct=1 / cqm=0 / deadzone=21,11 / fast_pskip=1 / chroma_qp_offset=-2 / threads=6 / lookahead_threads=1 / sliced_threads=0 / nr=0 / decimate=1 / interlaced=0 / bluray_compat=0 / constrained_intra=0 / bframes=8 / b_pyramid=2 / b_adapt=2 / b_bias=0 / direct=3 / weightb=1 / open_gop=0 / weightp=2 / keyint=240 / keyint_min=23 / scenecut=40 / intra_refresh=0 / rc_lookahead=40 / rc=2pass / mbtree=1 / bitrate=2703 / ratetol=1.0 / qcomp=0.60 / qpmin=10 / qpmax=51 / qpstep=4 / cplxblur=20.0 / qblur=0.5 / ip_ratio=1.40 / aq=2:1.00
Язык                                     : English
Default                                  : Да
Forced                                   : Нет
Аудио #1
Идентификатор                            : 2
Формат                                   : AC-3
Формат/Информация                        : Audio Coding 3
Расширение режима                        : CM (complete main)
Параметр Endianness формата              : Big
Идентификатор кодека                     : A_AC3
Продолжительность                        : 1 ч. 41 м.
Вид битрейта                             : Постоянный
Битрейт                                  : 448 Кбит/сек
Каналы                                   : 6 каналов
Расположение каналов                     : Front: L C R, Side: L R, LFE
Частота                                  : 48,0 КГц
Битовая глубина                          : 16 бит
Метод сжатия                             : С потерями
Размер потока                            : 326 Мбайт (12%)
Default                                  : Да
Forced                                   : Нет
Аудио #2
Идентификатор                            : 3
Формат                                   : AC-3
Формат/Информация                        : Audio Coding 3
Расширение режима                        : CM (complete main)
Параметр Endianness формата              : Big
Идентификатор кодека                     : A_AC3
Продолжительность                        : 1 ч. 41 м.
Вид битрейта                             : Постоянный
Битрейт                                  : 448 Кбит/сек
Каналы                                   : 6 каналов
Расположение каналов                     : Front: L C R, Side: L R, LFE
Частота                                  : 48,0 КГц
Битовая глубина                          : 16 бит
Метод сжатия                             : С потерями
Размер потока                            : 326 Мбайт (12%)
Default                                  : Нет
Forced                                   : Нет

Скриншоты



[Цитировать]



Показать сообщения:    

Текущее время: 05-Дек 07:33

Часовой пояс: UTC + 3


Вы не можете начинать темы
Вы не можете отвечать на сообщения
Вы не можете редактировать свои сообщения
Вы не можете удалять свои сообщения
Вы не можете голосовать в опросах
Вы не можете прикреплять файлы к сообщениям
Вы не можете скачивать файлы

!ВНИМАНИЕ!
Сайт не предоставляет электронные версии произведений, а занимается лишь коллекционированием и каталогизацией ссылок, присылаемых и публикуемых на форуме нашими читателями. Если вы являетесь правообладателем какого-либо представленного материала и не желаете, чтобы ссылка на него находилась в нашем каталоге, свяжитесь с нами, и мы незамедлительно удалим ее. Файлы для обмена на трекере предоставлены пользователями сайта, и администрация не несет ответственности за их содержание. Просьба не заливать файлы, защищенные авторскими правами, а также файлы нелегального содержания!