[ Сегодня идет свободное скачивание без начисления Download ]


Статистика раздачи
Буду качать: [ 1 ]
 
   
 
Top  
 
 
[sh]Назад в будущее: Трилогия / Back to the Future: Trilogy (1985-1990)[/sh]- -[sh]Назад в будущее / Back to the Future[/sh]- -[sh]Русское название:[/sh] Назад в будущее
[sh]Оригинальное название:[/sh] Back to the Future
[sh]Год выпуска:[/sh] 1985
[sh]Жанр:[/sh] Приключения, Фантастика-[sh]Описание фильма:[/sh]
Старшеклассник Марти Макфлай с помощью машины времени, которую создал его друг "Док" Браун, попадает из своих 80-х в далекие 50-е. Там Марти встречается со своими будущими родителями, еще подростками, и со своим другом-профессором, совсем молодым. Он нарушает естественный ход событий прошлого, чем вызывает массу смешных и драматических ситуаций. Собственная смекалка и хитроумная фантазия профессора-изобретателя помогают Марти преодолеть все препятствия и благополучно вернуться в свое время.-[sh]Режиссер:[/sh] Роберт Земекис
[sh]Актеры[/sh]: Майкл Дж. Фокс, Кристофер Ллойд, Лиа Томпсон, Криспин Гловер, Томас Ф. Уилсон, Клодия Уэллс, Марк МакКлюр, Уэнди Джо Спербер, Джордж ДиЧенцо, Фрэнсис Ли МакКейн...-[sh]Продолжительность:[/sh] 01:56:03
[sh]Перевод:[/sh] Дублированный, Профессиональный (многоголосый закадровый), Авторский одноголосый (А.Гаврилов), Авторский одноголосый (А.Михалёв)- -[sh]Видеокодек:[/sh] MPEG-4 AVC/H.264
[sh]Битрейт видео:[/sh] ~1408 Кбит/сек
[sh]Размер кадра:[/sh] 736 х 400
[sh]Качество видео:[/sh] BDRip
[sh]Аудио 1:[/sh] AC3 5.1, 384 Кбит/сек - Дублированный
[sh]Аудио 2:[/sh] AАC 5.1, 197 Кбит/сек - Профессиональный (многоголосый закадровый)
[sh]Аудио 3:[/sh] AC3 5.1, 384 Кбит/сек - Авторский одноголосый (А.Гаврилов)
[sh]Аудио 4:[/sh] AC3 5.1, 384 Кбит/сек - Авторский одноголосый (А.Михалёв)
[sh]Сэмпл:[/sh] Ссылка
-

MediaInfo

Формат : Matroska
Версия формата : Version 2
Размер файла : 2,23 Гбайт
Продолжительность : 1 ч. 56 м.
Общий поток : 2754 Кбит/сек
Дата кодирования : UTC 2013-02-28 14:55:45
Программа кодирования : mkvmerge v5.3.0 ('I could have danced') built on Feb 9 2012 10:38:07
Библиотека кодирования : libebml v1.2.3 + libmatroska v1.3.0
Attachment : Yes
Видео
Идентификатор : 1
Формат : AVC
Формат/Информация : Advanced Video Codec
Профиль формата : High@L4.1
Параметр CABAC формата : Да
Параметр ReFrames формата : 9 кадров
Идентификатор кодека : V_MPEG4/ISO/AVC
Продолжительность : 1 ч. 56 м.
Номинальный битрейт : 1408 Кбит/сек
Ширина : 736 пикселей
Высота : 400 пикселей
Соотношение сторон : 16:9
Частота кадров : 23,976 кадра/сек
Цветовое пространство : YUV
Субдискретизация насыщенности : 4:2:0
Битовая глубина : 8 бит
Тип развёртки : Прогрессивная
Бит/(Пиксели*Кадры) : 0.199
Библиотека кодирования : x264 core 112 r1834 a51816a
Настройки программы : cabac=1 / ref=9 / deblock=1:-3:-3 / analyse=0x3:0x133 / me=umh / subme=10 / psy=1 / psy_rd=1.00:0.05 / mixed_ref=1 / me_range=32 / chroma_me=1 / trellis=2 / 8x8dct=1 / cqm=0 / deadzone=21,11 / fast_pskip=0 / chroma_qp_offset=-3 / threads=3 / sliced_threads=0 / nr=0 / decimate=1 / interlaced=0 / constrained_intra=0 / bframes=9 / b_pyramid=2 / b_adapt=2 / b_bias=0 / direct=3 / weightb=1 / open_gop=0 / weightp=2 / keyint=250 / keyint_min=23 / scenecut=40 / intra_refresh=0 / rc_lookahead=50 / rc=2pass / mbtree=1 / bitrate=1408 / ratetol=1.0 / qcomp=0.60 / qpmin=0 / qpmax=51 / qpstep=4 / cplxblur=20.0 / qblur=0.5 / vbv_maxrate=50000 / vbv_bufsize=62500 / ip_ratio=1.35 / aq=2:1.05 / nal_hrd=none
Язык : English
Default : Нет
Forced : Нет
Аудио #1
Идентификатор : 2
Формат : AC-3
Формат/Информация : Audio Coding 3
Расширение режима : CM (complete main)
Идентификатор кодека : A_AC3
Продолжительность : 1 ч. 56 м.
Вид битрейта : Постоянный
Битрейт : 384 Кбит/сек
Каналы : 6 каналов
Расположение каналов : Front: L C R, Side: L R, LFE
Частота : 48,0 КГц
Битовая глубина : 16 бит
Метод сжатия : С потерями
Размер потока : 319 Мбайт (14%)
Заголовок : Дубляж "Пифагор"
Язык : Russian
Default : Да
Forced : Нет
Аудио #2
Идентификатор : 3
Формат : AAC
Формат/Информация : Advanced Audio Codec
Профиль формата : HE-AAC / LC
Идентификатор кодека : A_AAC
Продолжительность : 1 ч. 56 м.
Каналы : 6 каналов
Расположение каналов : Front: L C R, Side: L R, LFE
Частота : 48,0 КГц / 24,0 КГц
Метод сжатия : С потерями
Заголовок : Многоголосый
Язык : Russian
Default : Нет
Forced : Нет
Аудио #3
Идентификатор : 4
Формат : AC-3
Формат/Информация : Audio Coding 3
Расширение режима : CM (complete main)
Идентификатор кодека : A_AC3
Продолжительность : 1 ч. 56 м.
Вид битрейта : Постоянный
Битрейт : 384 Кбит/сек
Каналы : 6 каналов
Расположение каналов : Front: L C R, Side: L R, LFE
Частота : 48,0 КГц
Битовая глубина : 16 бит
Метод сжатия : С потерями
Задержка видео : 2 с. 550 мс.
Размер потока : 319 Мбайт (14%)
Заголовок : А.Гаврилов
Язык : Russian
Default : Нет
Forced : Нет
Аудио #4
Идентификатор : 5
Формат : AC-3
Формат/Информация : Audio Coding 3
Расширение режима : CM (complete main)
Идентификатор кодека : A_AC3
Продолжительность : 1 ч. 56 м.
Вид битрейта : Постоянный
Битрейт : 384 Кбит/сек
Каналы : 6 каналов
Расположение каналов : Front: L C R, Side: L R, LFE
Частота : 48,0 КГц
Битовая глубина : 16 бит
Метод сжатия : С потерями
Задержка видео : 2 с. 550 мс.
Размер потока : 319 Мбайт (14%)
Заголовок : А.Михалёв
Язык : Russian
Default : Нет
Forced : Нет
Скриншоты: [sh]Назад в будущее 2 / Back to the Future Part II[/sh]- -[sh]Русское название:[/sh] Назад в будущее 2
[sh]Оригинальное название:[/sh] Back to the Future Part II
[sh]Год выпуска:[/sh] 1989
[sh]Жанр:[/sh] Приключения, Фантастика, Семейный-[sh]Описание фильма:[/sh]
В этой части герои перемещаются в будущее, чтобы исправить возникшую там угрозу, но нельзя перемещаться во времени, влиять на события и не изменить настоящее. Возвратившись из будущего, изобретатель Док и Марти МакФлай попадают в странное незнакомое время. Последствия путешествия во времени необходимо исправить. Но случается, казалось бы, непапровимое - Док оказывается в прошлом. И новые приключения ждут героев.-[sh]Режиссер:[/sh] Роберт Земекис
[sh]Актеры:[/sh] Майкл Джей Фокс, Кристофер Ллойд , Лиа Томпсон, Томас Ф. Уилсон, Хэрри Уотерс-младший, Чарлз Флайшер, Джо Флаэрти, Элизабет Шу, Джеймс Толкан, Кэйси Семашко, Джордж Ди Ченцо, Марк МакКлюр...-[sh]Продолжительность:[/sh] 01:48:05
[sh]Перевод:[/sh] Дублированный, Профессиональный (многоголосый закадровый), Авторский одноголосый (А.Гаврилов), Авторский одноголосый (А.Михалёв)- -[sh]Видеокодек:[/sh] MPEG-4 AVC/H.264
[sh]Битрейт видео:[/sh] ~1528 Кбит/сек
[sh]Размер кадра:[/sh] 768 х 416
[sh]Качество видео:[/sh] BDRip
[sh]Аудио 1:[/sh] AC3 5.1, 384 Кбит/сек - Дублированный
[sh]Аудио 2:[/sh] AАC 5.1, 197 Кбит/сек - Профессиональный (многоголосый закадровый)
[sh]Аудио 3:[/sh] AC3 5.1, 384 Кбит/сек - Авторский одноголосый (А.Гаврилов)
[sh]Аудио 4:[/sh] AC3 5.1, 384 Кбит/сек - Авторский одноголосый (А.Михалёв)
[sh]Сэмпл:[/sh] Ссылка
-

MediaInfo

Формат : Matroska
Версия формата : Version 2
Размер файла : 2,17 Гбайт
Продолжительность : 1 ч. 48 м.
Общий поток : 2876 Кбит/сек
Дата кодирования : UTC 2013-02-28 14:58:45
Программа кодирования : mkvmerge v5.3.0 ('I could have danced') built on Feb 9 2012 10:38:07
Библиотека кодирования : libebml v1.2.3 + libmatroska v1.3.0
Attachment : Yes
Видео
Идентификатор : 1
Формат : AVC
Формат/Информация : Advanced Video Codec
Профиль формата : High@L4.1
Параметр CABAC формата : Да
Параметр ReFrames формата : 9 кадров
Идентификатор кодека : V_MPEG4/ISO/AVC
Продолжительность : 1 ч. 48 м.
Номинальный битрейт : 1528 Кбит/сек
Ширина : 768 пикселей
Высота : 416 пикселей
Соотношение сторон : 16:9
Частота кадров : 23,976 кадра/сек
Цветовое пространство : YUV
Субдискретизация насыщенности : 4:2:0
Битовая глубина : 8 бит
Тип развёртки : Прогрессивная
Бит/(Пиксели*Кадры) : 0.199
Библиотека кодирования : x264 core 112 r1834 a51816a
Настройки программы : cabac=1 / ref=9 / deblock=1:-3:-3 / analyse=0x3:0x133 / me=umh / subme=10 / psy=1 / psy_rd=1.00:0.00 / mixed_ref=1 / me_range=32 / chroma_me=1 / trellis=2 / 8x8dct=1 / cqm=0 / deadzone=21,11 / fast_pskip=0 / chroma_qp_offset=-2 / threads=3 / sliced_threads=0 / nr=0 / decimate=1 / interlaced=0 / constrained_intra=0 / bframes=8 / b_pyramid=2 / b_adapt=2 / b_bias=0 / direct=3 / weightb=1 / open_gop=0 / weightp=2 / keyint=250 / keyint_min=23 / scenecut=40 / intra_refresh=0 / rc_lookahead=60 / rc=2pass / mbtree=1 / bitrate=1528 / ratetol=1.0 / qcomp=0.75 / qpmin=0 / qpmax=51 / qpstep=4 / cplxblur=20.0 / qblur=0.5 / vbv_maxrate=50000 / vbv_bufsize=62500 / ip_ratio=1.35 / aq=2:1.00 / nal_hrd=none
Язык : English
Default : Нет
Forced : Нет
Аудио #1
Идентификатор : 2
Формат : AC-3
Формат/Информация : Audio Coding 3
Расширение режима : CM (complete main)
Идентификатор кодека : A_AC3
Продолжительность : 1 ч. 48 м.
Вид битрейта : Постоянный
Битрейт : 384 Кбит/сек
Каналы : 6 каналов
Расположение каналов : Front: L C R, Side: L R, LFE
Частота : 48,0 КГц
Битовая глубина : 16 бит
Метод сжатия : С потерями
Размер потока : 297 Мбайт (13%)
Заголовок : Дубляж "Пифагор"
Язык : Russian
Default : Да
Forced : Нет
Аудио #2
Идентификатор : 3
Формат : AAC
Формат/Информация : Advanced Audio Codec
Профиль формата : HE-AAC / LC
Идентификатор кодека : A_AAC
Продолжительность : 1 ч. 48 м.
Каналы : 6 каналов
Расположение каналов : Front: L C R, Side: L R, LFE
Частота : 48,0 КГц / 24,0 КГц
Метод сжатия : С потерями
Заголовок : Многоголосый
Язык : Russian
Default : Нет
Forced : Нет
Аудио #3
Идентификатор : 4
Формат : AC-3
Формат/Информация : Audio Coding 3
Расширение режима : CM (complete main)
Идентификатор кодека : A_AC3
Продолжительность : 1 ч. 48 м.
Вид битрейта : Постоянный
Битрейт : 384 Кбит/сек
Каналы : 6 каналов
Расположение каналов : Front: L C R, Side: L R, LFE
Частота : 48,0 КГц
Битовая глубина : 16 бит
Метод сжатия : С потерями
Размер потока : 297 Мбайт (13%)
Заголовок : А.Гаврилов
Язык : Russian
Default : Нет
Forced : Нет
Аудио #4
Идентификатор : 5
Формат : AC-3
Формат/Информация : Audio Coding 3
Расширение режима : CM (complete main)
Идентификатор кодека : A_AC3
Продолжительность : 1 ч. 48 м.
Вид битрейта : Постоянный
Битрейт : 384 Кбит/сек
Каналы : 6 каналов
Расположение каналов : Front: L C R, Side: L R, LFE
Частота : 48,0 КГц
Битовая глубина : 16 бит
Метод сжатия : С потерями
Размер потока : 297 Мбайт (13%)
Заголовок : А.Михалев
Язык : Russian
Default : Нет
Forced : Нет
Скриншоты: [sh]Назад в будущее 3 / Back to the Future Part III[/sh]- -[sh]Русское название:[/sh] Назад в будущее 3
[sh]Оригинальное название:[/sh] Back to the Future Part III
[sh]Год выпуска:[/sh] 1990
[sh]Жанр:[/sh] Вестерн, Фантастика, Приключения-[sh]Описание фильма:[/sh]
Из газет 1955 года Марти узнает, что доктор Браун погиб еще сто лет назад. Несмотря на просьбы Дока не навещать его в XIX веке, Марти вновь хочет вмешаться в ход событий и на машине времени уносится в 1885 год, навстречу Дикому Западу.
Это путешествие, как и все прежние, не обходится без опасных приключений, но смелый Марти, рискуя жизнью, предотвращает трагедию в жизни Эммета Брауна. Тот, в свою очередь, без памяти влюбляется в очаровательную незнакомку, которую спасает от гибели, и поездка домой — в будущее — теряет для него всякий смысл…-[sh]Режиссер:[/sh] Роберт Земекис
[sh]Актеры:[/sh] Майкл Джей Фокс, Кристофер Ллойд, Мэри Стинберджен, Томас Ф. Уилсон, Лиа Томпсон, Элизабет Шу, Мэтт Кларк, Ричард Дайсарт, Пэт Баттрэм , Хэрри Кэри-младший, Jr., Даб Тэйлор, Джеймс Толкан...-[sh]Продолжительность:[/sh] 01:58:17
[sh]Перевод:[/sh] Дублированный, Профессиональный (многоголосый закадровый), Авторский одноголосый (А.Гаврилов), Авторский одноголосый (А.Михалёв)- -[sh]Видеокодек:[/sh] MPEG-4 AVC/H.264
[sh]Битрейт видео:[/sh] ~1381 Кбит/сек
[sh]Размер кадра:[/sh] 768 х 416
[sh]Качество видео:[/sh] BDRip
[sh]Аудио 1:[/sh] AC3 5.1, 384 Кбит/сек - Дублированный
[sh]Аудио 2:[/sh] AАC 5.1, 197 Кбит/сек - Профессиональный (многоголосый закадровый)
[sh]Аудио 3:[/sh] AC3 5.1, 384 Кбит/сек - Авторский одноголосый (А.Гаврилов)
[sh]Аудио 4:[/sh] AC3 5.1, 384 Кбит/сек - Авторский одноголосый (А.Михалёв)
[sh]Сэмпл:[/sh] Ссылка
-

MediaInfo

Формат : Matroska
Версия формата : Version 2
Размер файла : 2,25 Гбайт
Продолжительность : 1 ч. 58 м.
Общий поток : 2728 Кбит/сек
Дата кодирования : UTC 2013-02-28 17:09:22
Программа кодирования : mkvmerge v5.3.0 ('I could have danced') built on Feb 9 2012 10:38:07
Библиотека кодирования : libebml v1.2.3 + libmatroska v1.3.0
Attachment : Yes
Видео
Идентификатор : 1
Формат : AVC
Формат/Информация : Advanced Video Codec
Профиль формата : High@L4.1
Параметр CABAC формата : Да
Параметр ReFrames формата : 9 кадров
Идентификатор кодека : V_MPEG4/ISO/AVC
Продолжительность : 1 ч. 58 м.
Номинальный битрейт : 1381 Кбит/сек
Ширина : 768 пикселей
Высота : 416 пикселей
Соотношение сторон : 16:9
Частота кадров : 23,976 кадра/сек
Цветовое пространство : YUV
Субдискретизация насыщенности : 4:2:0
Битовая глубина : 8 бит
Тип развёртки : Прогрессивная
Бит/(Пиксели*Кадры) : 0.180
Библиотека кодирования : x264 core 112 r1834 a51816a
Настройки программы : cabac=1 / ref=9 / deblock=1:-2:-1 / analyse=0x3:0x133 / me=umh / subme=10 / psy=1 / psy_rd=1.00:0.05 / mixed_ref=1 / me_range=32 / chroma_me=1 / trellis=2 / 8x8dct=1 / cqm=0 / deadzone=21,11 / fast_pskip=0 / chroma_qp_offset=-3 / threads=3 / sliced_threads=0 / nr=0 / decimate=1 / interlaced=0 / constrained_intra=0 / bframes=9 / b_pyramid=2 / b_adapt=2 / b_bias=0 / direct=3 / weightb=1 / open_gop=0 / weightp=2 / keyint=250 / keyint_min=23 / scenecut=40 / intra_refresh=0 / rc_lookahead=50 / rc=2pass / mbtree=1 / bitrate=1381 / ratetol=1.0 / qcomp=0.60 / qpmin=0 / qpmax=51 / qpstep=4 / cplxblur=20.0 / qblur=0.5 / vbv_maxrate=50000 / vbv_bufsize=62500 / ip_ratio=1.35 / aq=2:1.05 / nal_hrd=none
Язык : English
Default : Нет
Forced : Нет
Аудио #1
Идентификатор : 2
Формат : AC-3
Формат/Информация : Audio Coding 3
Расширение режима : CM (complete main)
Идентификатор кодека : A_AC3
Продолжительность : 1 ч. 58 м.
Вид битрейта : Постоянный
Битрейт : 384 Кбит/сек
Каналы : 6 каналов
Расположение каналов : Front: L C R, Side: L R, LFE
Частота : 48,0 КГц
Битовая глубина : 16 бит
Метод сжатия : С потерями
Размер потока : 325 Мбайт (14%)
Заголовок : Дубляж
Язык : Russian
Default : Да
Forced : Нет
Аудио #2
Идентификатор : 3
Формат : AAC
Формат/Информация : Advanced Audio Codec
Профиль формата : HE-AAC / LC
Идентификатор кодека : A_AAC
Продолжительность : 1 ч. 58 м.
Каналы : 6 каналов
Расположение каналов : Front: L C R, Side: L R, LFE
Частота : 48,0 КГц / 24,0 КГц
Метод сжатия : С потерями
Заголовок : Многоголосый
Язык : Russian
Default : Нет
Forced : Нет
Аудио #3
Идентификатор : 4
Формат : AC-3
Формат/Информация : Audio Coding 3
Расширение режима : CM (complete main)
Идентификатор кодека : A_AC3
Продолжительность : 1 ч. 58 м.
Вид битрейта : Постоянный
Битрейт : 384 Кбит/сек
Каналы : 6 каналов
Расположение каналов : Front: L C R, Side: L R, LFE
Частота : 48,0 КГц
Битовая глубина : 16 бит
Метод сжатия : С потерями
Размер потока : 325 Мбайт (14%)
Заголовок : А.Гаврилов
Язык : Russian
Default : Нет
Forced : Нет
Аудио #4
Идентификатор : 5
Формат : AC-3
Формат/Информация : Audio Coding 3
Расширение режима : CM (complete main)
Идентификатор кодека : A_AC3
Продолжительность : 1 ч. 58 м.
Вид битрейта : Постоянный
Битрейт : 384 Кбит/сек
Каналы : 6 каналов
Расположение каналов : Front: L C R, Side: L R, LFE
Частота : 48,0 КГц
Битовая глубина : 16 бит
Метод сжатия : С потерями
Размер потока : 325 Мбайт (14%)
Заголовок : А.Михалев
Язык : Russian
Default : Нет
Forced : Нет
Скриншоты: Время раздачи: С 12:00 до 18:00

[Цитировать]



Показать сообщения:    

Текущее время: 08-Дек 09:06

Часовой пояс: UTC + 3


Вы не можете начинать темы
Вы не можете отвечать на сообщения
Вы не можете редактировать свои сообщения
Вы не можете удалять свои сообщения
Вы не можете голосовать в опросах
Вы не можете прикреплять файлы к сообщениям
Вы не можете скачивать файлы

!ВНИМАНИЕ!
Сайт не предоставляет электронные версии произведений, а занимается лишь коллекционированием и каталогизацией ссылок, присылаемых и публикуемых на форуме нашими читателями. Если вы являетесь правообладателем какого-либо представленного материала и не желаете, чтобы ссылка на него находилась в нашем каталоге, свяжитесь с нами, и мы незамедлительно удалим ее. Файлы для обмена на трекере предоставлены пользователями сайта, и администрация не несет ответственности за их содержание. Просьба не заливать файлы, защищенные авторскими правами, а также файлы нелегального содержания!