[ Сегодня идет свободное скачивание без начисления Download ]


Статистика раздачи
Нет
 
   
 
Top  
 
 
[sh]Сделай погромче / Turn It Up[/sh]- -Русское название: Сделай погромче
Оригинальное название: Turn It Up
Год выпуска: 2000
Жанр: Боевик, Криминал, Драма
Продолжительность: 01:26:54
Перевод: Одноголосый закадровый
Автор перевода: Карповский Антон-Режиссер: Роберт Эйдитай / Robert Adetuyi
Актеры: Прас, Джа Рул, Джейсон Стэйтем, Вонди Куртис-Холл, Тамала Джонс, Джон Ралстон, Крис Мессина, Юджин Кларк, Тед Кларк, Патрисия Веласкес-Описание фильма:
Молодой рэппер из Бруклина Даймонд пытается стать звездой. Его друг Гэйдж выступает в роли его менеджера. Для того, чтобы записать демозапись, им нужны деньги. Поэтому они приторговывают наркотиками для Мистера Би. Но за несколько дней жизнь Даймонда резко меняется. Сначала неожиданно умирает его мать, потом появляется отец, который ушел из семьи 12 лет назад, а теперь хочет восстановить отношения с сыном, а девушка Даймонда Киа сообщает ему, что беременна, и хочет знать, готов ли Даймонд стать отцом.
В это время Гэйдж участвует в ограблении и добывает крупную сумму, на которую можно записать целый альбом. Однако, выясняется, что эти деньги принадлежат Мистеру Би, и тот их, разумеется, хочет получить назад…- -Качество видео: DVDRip
Видео: 704x528 (1.33:1), 23.976 fps, XviD build 64, 1721 kbps avg, 0.19 bit/pixel
Аудио 1: 48 kHz, AC3 Dolby Digital, 3/2 (L,C,R,l,r) + LFE ch, 448 kbps
Аудио 2: 48 kHz, AC3 Dolby Digital, 2/0 (L,R) Surround Encoded ch, 192 kbps
Сэмпл: Ссылка
-

Media info

Format : AVI
Format/Info : Audio Video Interleave
File size : 1.44 GiB
Duration : 1h 26mn
Overall bit rate : 2 376 Kbps
Writing application : VirtualDubModRus 1.5.10.2 (build 2542/release)
Writing library : VirtualDubMod build 2542/release
Video
ID : 0
Format : MPEG-4 Visual
Format profile : Advanced [email protected]
Format settings, BVOP : 2
Format settings, QPel : No
Format settings, GMC : No warppoints
Format settings, Matrix : Default (MPEG)
Codec ID : XVID
Codec ID/Hint : XviD
Duration : 1h 26mn
Bit rate : 1 722 Kbps
Width : 704 pixels
Height : 528 pixels
Display aspect ratio : 4:3
Frame rate : 23.976 fps
Color space : YUV
Chroma subsampling : 4:2:0
Bit depth : 8 bits
Scan type : Progressive
Compression mode : Lossy
Bits/(Pixel*Frame) : 0.193
Stream size : 1.05 GiB (72%)
Writing library : XviD 64
Audio #1
ID : 1
Format : AC-3
Format/Info : Audio Coding 3
Mode extension : CM (complete main)
Format settings, Endianness : Big
Codec ID : 2000
Duration : 1h 26mn
Bit rate mode : Constant
Bit rate : 448 Kbps
Channel(s) : 6 channels
Channel positions : Front: L C R, Side: L R, LFE
Sampling rate : 48.0 KHz
Bit depth : 16 bits
Compression mode : Lossy
Stream size : 278 MiB (19%)
Alignment : Split accross interleaves
Interleave, duration : 42 ms (1.00 video frame)
Interleave, preload duration : 500 ms
Audio #2
ID : 2
Format : AC-3
Format/Info : Audio Coding 3
Format profile : Dolby Digital
Mode extension : CM (complete main)
Format settings, Endianness : Big
Codec ID : 2000
Duration : 1h 26mn
Bit rate mode : Constant
Bit rate : 192 Kbps
Channel(s) : 2 channels
Channel positions : Front: L R
Sampling rate : 48.0 KHz
Bit depth : 16 bits
Compression mode : Lossy
Stream size : 119 MiB (8%)
Alignment : Split accross interleaves
Interleave, duration : 42 ms (1.00 video frame)
Interleave, preload duration : 500 ms
Скриншоты:

Время раздачи: (24/7 - круглосуточно)

[Цитировать]



Показать сообщения:    

Текущее время: 06-Дек 21:02

Часовой пояс: UTC + 3


Вы не можете начинать темы
Вы не можете отвечать на сообщения
Вы не можете редактировать свои сообщения
Вы не можете удалять свои сообщения
Вы не можете голосовать в опросах
Вы не можете прикреплять файлы к сообщениям
Вы не можете скачивать файлы

!ВНИМАНИЕ!
Сайт не предоставляет электронные версии произведений, а занимается лишь коллекционированием и каталогизацией ссылок, присылаемых и публикуемых на форуме нашими читателями. Если вы являетесь правообладателем какого-либо представленного материала и не желаете, чтобы ссылка на него находилась в нашем каталоге, свяжитесь с нами, и мы незамедлительно удалим ее. Файлы для обмена на трекере предоставлены пользователями сайта, и администрация не несет ответственности за их содержание. Просьба не заливать файлы, защищенные авторскими правами, а также файлы нелегального содержания!