[ Сегодня идет свободное скачивание без начисления Download ]


Статистика раздачи
Нет
 
   
 
Top  
 
 
-Хоббит: Нежданное путешествие / The Hobbit: An Unexpected Journey (2012) BDRip
«From the smallest beginnings come the greatest legends.»
- Русское название: Хоббит: Нежданное путешествие
Оригинальное название: The Hobbit: An Unexpected Journey
Год выпуска: 2012
Производство: New Line Cinema / Metro-Goldwyn-Mayer [США, Новая Зеландия]
Жанр: Фэнтези, приключения
Перевод: Дублированный [чистый звук]
Субтитры: Вшитые отключаемые
Язык субтитров: Русский, английский (полные, SDH, цветные SDH)
Режиссер: Питер Джексон
Актеры: Мартин Фриман, Иэн МакКеллен, Ричард Армитэдж, Джеймс Несбитт, Кен Стотт, Кейт Бланшетт, Элайджа Вуд, Хьюго Уивинг, Кристофер Ли, Энди Серкис
Описание фильма:
Фильм повествует о путешествии Бильбо Бэггинса, который пускается в поход, целью которого является отвоевание утраченного королевства гномов Эребор у зловещего дракона Смога. Совершенно неожиданно с хоббитом налаживает контакт волшебник Гэндальф Серый. Так Бильбо находит себя, присоединяясь к компании тринадцати гномов, возглавляемых легендарным воином, Торином Дубощитом. Их путешествие проляжет через Дикий Край, через предательские земли, населенные гоблинами и орками, смертоносными варгами и гигантскими пауками, народом, меняющим шкуры, и волшебниками. И хотя их цель находится на Востоке среди пустошей Одинокой Горы, сначала им придется выбраться из туннелей гоблинов, где Бильбо встретит существо, которое изменит его жизнь навсегда… Голлума.
Дата мировой премьеры: 28 ноября 2012
Дата российской премьеры: 19 декабря 2012, «Каро-Премьер»
Дата выхода DVD релиза: 11 апреля 2013, «CP Дистрибуция»
Дата выхода Blu-Ray релиза: 11 апреля 2013, «CP Дистрибуция»
Рейтинг PG-13 - Детям до 13 лет просмотр не желателен

Продолжительность: 02:49:37
Качество видео: BDRip [CHD]
Видео: MPEG4_AVC/H.264, 1920x800, ~11143 kbps, 23.976 fps
Аудио 1: AC3 5.1, 448 kbps [Русский - дублированный]
Аудио 2: DTS 5.1, 1510 kbps [Английский - оригинал]

MediaInfo...

Полное имя : D:\Хоббит.Нежданное.путешествие-The.Hobbit.An.Unexpected.Journey.(2012).BDRip.[1080p].mkv
Формат : Matroska
Версия формата : Version 2
Размер файла : 15,5 Гбайт
Продолжительность : 2 ч. 49 м.
Общий поток : 13,1 Мбит/сек
Дата кодирования : UTC 2013-03-02 10:42:21
Программа кодирования : mkvmerge v5.2.0 ('I can't explain') built on Dec 18 2011 18:12:03
Библиотека кодирования : libebml v1.2.3 + libmatroska v1.3.0
Видео
Идентификатор : 1
Формат : AVC
Формат/Информация : Advanced Video Codec
Профиль формата : High@L4.1
Параметр CABAC формата : Да
Параметр ReFrames формата : 5 кадров
Идентификатор кодека : V_MPEG4/ISO/AVC
Продолжительность : 2 ч. 49 м.
Битрейт : 11,1 Мбит/сек
Ширина : 1920 пикселей
Высота : 800 пикселей
Соотношение сторон : 2,40:1
Режим частоты кадров : Постоянный
Частота кадров : 23,976 кадра/сек
Цветовое пространство : YUV
Субдискретизация насыщенности : 4:2:0
Битовая глубина : 8 бит
Тип развёртки : Прогрессивная
Бит/(Пиксели*Кадры) : 0.303
Размер потока : 12,9 Гбайт (83%)
Заголовок : The Hobbit: An Unexpected Journey 2012 BluRay 1080p DTS x264-CHD
Библиотека кодирования : x264 core 125 r2208 d9d2288
Настройки программы : cabac=1 / ref=5 / deblock=1:-3:-3 / analyse=0x3:0x113 / me=umh / subme=10 / psy=1 / psy_rd=1.05:0.10 / mixed_ref=1 / me_range=32 / chroma_me=1 / trellis=2 / 8x8dct=1 / cqm=0 / deadzone=21,11 / fast_pskip=0 / chroma_qp_offset=-2 / threads=8 / lookahead_threads=1 / sliced_threads=0 / nr=0 / decimate=1 / interlaced=0 / bluray_compat=0 / constrained_intra=0 / bframes=5 / b_pyramid=2 / b_adapt=2 / b_bias=0 / direct=3 / weightb=1 / open_gop=0 / weightp=2 / keyint=250 / keyint_min=23 / scenecut=40 / intra_refresh=0 / rc=2pass / mbtree=0 / bitrate=11143 / ratetol=1.0 / qcomp=0.70 / qpmin=0 / qpmax=69 / qpstep=4 / cplxblur=20.0 / qblur=0.5 / ip_ratio=1.40 / pb_ratio=1.30 / aq=2:1.00
Язык : English
Default : Да
Forced : Да
Аудио #1
Идентификатор : 2
Формат : AC-3
Формат/Информация : Audio Coding 3
Расширение режима : CM (complete main)
Параметр Endianness формата : Big
Идентификатор кодека : A_AC3
Продолжительность : 2 ч. 49 м.
Вид битрейта : Постоянный
Битрейт : 448 Кбит/сек
Каналы : 6 каналов
Расположение каналов : Front: L C R, Side: L R, LFE
Частота : 48,0 КГц
Битовая глубина : 16 бит
Метод сжатия : С потерями
Размер потока : 544 Мбайт (3%)
Заголовок : DD 5.1 @ 448 kbps - Dub
Язык : Russian
Default : Да
Forced : Да
Аудио #2
Идентификатор : 3
Формат : DTS
Формат/Информация : Digital Theater Systems
Идентификатор кодека : A_DTS
Продолжительность : 2 ч. 49 м.
Вид битрейта : Постоянный
Битрейт : 1510 Кбит/сек
Каналы : 6 каналов
Расположение каналов : Front: L C R, Side: L R, LFE
Частота : 48,0 КГц
Битовая глубина : 24 бит
Метод сжатия : С потерями
Размер потока : 1,79 Гбайт (12%)
Заголовок : DTS 5.1 @ 1536 kbps
Язык : English
Default : Нет
Forced : Нет
Текст #1
Идентификатор : 4
Формат : UTF-8
Идентификатор кодека : S_TEXT/UTF8
Идентификатор кодека/Информация : UTF-8 Plain Text
Язык : Russian
Default : Нет
Forced : Нет
Текст #2
Идентификатор : 5
Формат : UTF-8
Идентификатор кодека : S_TEXT/UTF8
Идентификатор кодека/Информация : UTF-8 Plain Text
Язык : English
Default : Нет
Forced : Нет
Текст #3
Идентификатор : 6
Формат : UTF-8
Идентификатор кодека : S_TEXT/UTF8
Идентификатор кодека/Информация : UTF-8 Plain Text
Заголовок : SDH
Язык : English
Default : Нет
Forced : Нет
Текст #4
Идентификатор : 7
Формат : UTF-8
Идентификатор кодека : S_TEXT/UTF8
Идентификатор кодека/Информация : UTF-8 Plain Text
Заголовок : SDH Colored
Язык : English
Default : Нет
Forced : Нет
Меню
00:00:00.000 : en:00:00:00.000
00:08:51.531 : en:00:08:51.531
00:12:58.903 : en:00:12:58.903
00:16:34.619 : en:00:16:34.619
00:20:50.666 : en:00:20:50.666
00:25:09.007 : en:00:25:09.007
00:33:14.409 : en:00:33:14.409
00:38:26.804 : en:00:38:26.804
00:43:40.368 : en:00:43:40.368
00:50:12.301 : en:00:50:12.301
00:55:16.939 : en:00:55:16.939
00:57:04.838 : en:00:57:04.838
01:07:51.943 : en:01:07:51.943
01:12:11.369 : en:01:12:11.369
01:16:03.559 : en:01:16:03.559
01:22:06.463 : en:01:22:06.463
01:28:49.991 : en:01:28:49.991
01:32:03.518 : en:01:32:03.518
01:33:42.534 : en:01:33:42.534
01:40:29.607 : en:01:40:29.607
01:43:06.847 : en:01:43:06.847
01:49:12.963 : en:01:49:12.963
01:54:04.588 : en:01:54:04.588
01:56:58.094 : en:01:56:58.094
02:10:27.945 : en:02:10:27.945
02:12:26.021 : en:02:12:26.021
02:13:37.718 : en:02:13:37.718
02:17:59.438 : en:02:17:59.438
02:20:09.359 : en:02:20:09.359
02:22:59.112 : en:02:22:59.112
02:33:58.563 : en:02:33:58.563
02:39:27.558 : en:02:39:27.558
Скриншоты:


Время раздачи: 24/7 (до 10 скачавших)

[Цитировать]

Звук дубляж чистый)) не многоголоска

[Цитировать]

Топик был перенесен из форума Новинки кинопроката (HD Video) в форум Зарубежное кино (HD Video)
Bootch



Показать сообщения:    

Текущее время: 09-Дек 22:27

Часовой пояс: UTC + 3


Вы не можете начинать темы
Вы не можете отвечать на сообщения
Вы не можете редактировать свои сообщения
Вы не можете удалять свои сообщения
Вы не можете голосовать в опросах
Вы не можете прикреплять файлы к сообщениям
Вы не можете скачивать файлы

!ВНИМАНИЕ!
Сайт не предоставляет электронные версии произведений, а занимается лишь коллекционированием и каталогизацией ссылок, присылаемых и публикуемых на форуме нашими читателями. Если вы являетесь правообладателем какого-либо представленного материала и не желаете, чтобы ссылка на него находилась в нашем каталоге, свяжитесь с нами, и мы незамедлительно удалим ее. Файлы для обмена на трекере предоставлены пользователями сайта, и администрация не несет ответственности за их содержание. Просьба не заливать файлы, защищенные авторскими правами, а также файлы нелегального содержания!