[ Сегодня идет свободное скачивание без начисления Download ]


Статистика раздачи
Нет
 
   
 
Top  
 
 
-Продавец игрушек (2012) CamRip- Русское название: Продавец игрушек
Год выпуска: 2012
Производство: Россия
Жанр: Комедия, Семейный, Мелодрама
Перевод: Не требуется (Русский)
Субтитры: Отсутствуют
Дата российской премьеры: 07.01.2013
Режиссер: Юрий Васильев
Продюсер: Виктор Добросоцкий, Мария Журомская, Эльмира Айнулова
Актеры: Шамиль Хаматов, Агния Чадова, Татьяна Лютаева, Вениамин Смехов, Пьер Ришар, Андрей Барило, Ольга Волкова, Тифани Давио, Евгений Шиманович, Александр Соловьев
Описание фильма:
Николя Берсен — француз с русскими корнями. Живет в Париже и работает продавцом игрушек. Ни мама, ни французская невеста — дочь Парижского кондитерского «короля» — не одобряют чудачества Николя, ведь сорбонское образование позволяет ему сделать прекрасную карьеру в бизнесе. Перед Рождеством Николя отправляется в Россию, чтобы больше узнать о своем происхождении. Кто мог предположить, что эта поездка изменит его жизнь? В России его ждут приключения, фамильные сокровища, и… настоящая любовь.

Продолжительность: 01:29:58
Качество видео: CamRip
Видеокодек: Xvid
Битрейт видео: ~951 Kbit/s
Размер кадра: 720х256
Аудиокодек: MP3, 2 канала
Битрейт аудио: 128 kbit/s
Семпл

Дополнительная информация:

Сценарий Виктора Добросоцкого по книге «Продавец игрушек» получил грант Министерства Культуры РФ.
Композитор Игорь Крутой никогда прежде не писал саундтреки к фильмам, а для картины «Продавец игрушек» написал не только музыку, но и три песни — на английском, французском и русском языке.
Съемки фильма проводились в Москве и Париже, не в павильонах, а на уникальных архитектурных, исторических и культурных объектах (в Историческом музее, аэропорту Внуково, катке на Красной Площади, Доме Пашкова и т. п.).
Агния Дитковските приступила к съемкам сразу после участия в телешоу «Лед и пламень на Первом», где ее учили премудростям фигурного катания. А в «Продавце игрушек» Агнии самой приходится учить главного героя Николя кататься на коньках.
Татьяна Лютаева, мама Агнии Дитковските, часто снимается с дочерью и уже второй раз по сценарию играет в фильме не ее маму, а матушку ее возлюбленного. Так, например, было в картине «ЖАRА».

MediaInfo

General
Complete name : G:\Продавец игрушек (2012) CAMRip\Prodavec.igrushek.2012.O.CAMRip.700MB.avi
Format : AVI
Format/Info : Audio Video Interleave
File size : 701 MiB
Duration : 1h 29mn
Overall bit rate : 1 089 Kbps
Writing application : VirtualDubMod 1.5.10.3 | www.virtualdub-fr.org || (build 2550/release)
Writing library : VirtualDubMod build 2550/release
Video
ID : 0
Format : MPEG-4 Visual
Format profile : Advanced [email protected]
Format settings, BVOP : 2
Format settings, QPel : No
Format settings, GMC : No warppoints
Format settings, Matrix : Default (MPEG)
Muxing mode : Packed bitstream
Codec ID : XVID
Codec ID/Hint : XviD
Duration : 1h 29mn
Bit rate : 952 Kbps
Width : 720 pixels
Height : 256 pixels
Display aspect ratio : 2.813
Frame rate : 25.000 fps
Color space : YUV
Chroma subsampling : 4:2:0
Bit depth : 8 bits
Scan type : Progressive
Compression mode : Lossy
Bits/(Pixel*Frame) : 0.207
Stream size : 612 MiB (87%)
Writing library : XviD 73
Audio
ID : 1
Format : MPEG Audio
Format version : Version 1
Format profile : Layer 3
Codec ID : 55
Codec ID/Hint : MP3
Duration : 1h 29mn
Bit rate mode : Constant
Bit rate : 128 Kbps
Channel(s) : 2 channels
Sampling rate : 48.0 KHz
Compression mode : Lossy
Stream size : 82.4 MiB (12%)
Alignment : Aligned on interleaves
Interleave, duration : 40 ms (1.00 video frame)
Interleave, preload duration : 504 ms
Writing library : LAME3.99r
Encoding settings : -m s -V 4 -q 2 -lowpass 17 -b 128
Скриншоты:
Время раздачи: 07:00-23:00

[Цитировать]

Топик был перенесен из форума Новинки кинопроката в форум Комедия
Henkok



Показать сообщения:    

Текущее время: 06-Дек 11:18

Часовой пояс: UTC + 3


Вы не можете начинать темы
Вы не можете отвечать на сообщения
Вы не можете редактировать свои сообщения
Вы не можете удалять свои сообщения
Вы не можете голосовать в опросах
Вы не можете прикреплять файлы к сообщениям
Вы не можете скачивать файлы

!ВНИМАНИЕ!
Сайт не предоставляет электронные версии произведений, а занимается лишь коллекционированием и каталогизацией ссылок, присылаемых и публикуемых на форуме нашими читателями. Если вы являетесь правообладателем какого-либо представленного материала и не желаете, чтобы ссылка на него находилась в нашем каталоге, свяжитесь с нами, и мы незамедлительно удалим ее. Файлы для обмена на трекере предоставлены пользователями сайта, и администрация не несет ответственности за их содержание. Просьба не заливать файлы, защищенные авторскими правами, а также файлы нелегального содержания!