[ Today is free to download without increasing Download ]

DL-List and Torrent activity
-Большие надежды / Great Expectations (2012) DVDRip
«Загадочная история о поисках счастья»
-- Русское название: Большие надежды
Оригинальное название: Great Expectations
Год выпуска: 2012
Страна: Великобритания, США | BBC Films, Lipsync Productions, Number 9 Films
Жанр: Драма--Описание фильма:
В центре сюжета — история молодого человека по имени Пип, который рано остался без родителей и был воспитан взбалмошной сестрой. Серая жизнь Пипа круто меняется, когда он помогает на кладбище освободиться от кандалов беглому каторжнику. Именно этот поступок вскоре приводит к череде головокружительных событий в жизни молодого человека.--Режиссер: Майк Ньюэлл
Актеры: Джереми Ирвин, Холлидей Грейнджер, Рэйф Файнс, Хелена Бонем Картер, Джейсон Флеминг, Робби Колтрейн, Юэн Бремнер, Салли Хокинс, Дэвид Уоллиамс, Софи Рандл...
Продолжительность: 02:03:09
Перевод: Дублированный
Релиз группа: IronClub

Дата мировой премьеры: 11 сентября 2012
Дата российской премьеры: 24 января 2013, «Каравелла DDC»
Дата выхода DVD релиза: 6 марта 2013, «Кармен Видео», «ВС трейд»
Дата выхода Blu-Ray релиза: 6 марта 2013, «Кармен Видео»-Видеокодек: Xvid
Битрейт видео: ~1996 Kbps
Размер кадра: 720*400
Качество видео: DVDRip
Аудиокодек: AC3 5.1
Битрейт аудио: 384 Kbps


Complete name                            : :\\Bolshie.nadezhdy.2012.D.DVDRip.avi
Format                                   : AVI
Format/Info                              : Audio Video Interleave
Format profile                           : OpenDML
File size                                : 2.06 GiB
Duration                                 : 2h 3mn
Overall bit rate                         : 2 392 Kbps
Movie name                               : Bolshie.nadezhdy.2012.D.DVDRip
Genre                                    : Drama
Writing application                      : VirtualDubMod (build 2540/release)
Original source form/Name                : Movie
ID                                       : 0
Format                                   : MPEG-4 Visual
Format profile                           : Advanced Simple@L5
Format settings, BVOP                    : 1
Format settings, QPel                    : No
Format settings, GMC                     : No warppoints
Format settings, Matrix                  : Custom
Codec ID                                 : XVID
Codec ID/Hint                            : XviD
Duration                                 : 2h 3mn
Bit rate                                 : 1 996 Kbps
Width                                    : 720 pixels
Height                                   : 400 pixels
Display aspect ratio                     : 16:9
Frame rate                               : 25.000 fps
Color space                              : YUV
Chroma subsampling                       : 4:2:0
Bit depth                                : 8 bits
Scan type                                : Progressive
Compression mode                         : Lossy
Bits/(Pixel*Frame)                       : 0.277
Stream size                              : 1.72 GiB (83%)
Writing library                          : XviD 1.2.1 (UTC 2008-12-04)
ID                                       : 1
Format                                   : AC-3
Format/Info                              : Audio Coding 3
Mode extension                           : CM (complete main)
Format settings, Endianness              : Big
Codec ID                                 : 2000
Duration                                 : 2h 3mn
Bit rate mode                            : Constant
Bit rate                                 : 384 Kbps
Channel(s)                               : 6 channels
Channel positions                        : Front: L C R, Side: L R, LFE
Sampling rate                            : 48.0 KHz
Bit depth                                : 16 bits
Compression mode                         : Lossy
Delay relative to video                  : 1s 750ms
Stream size                              : 338 MiB (16%)
Alignment                                : Split accross interleaves
Interleave, duration                     : 40 ms (1.00 video frame)
Interleave, preload duration             : 500 ms
Скриншоты: Время раздачи: 24/7 до первых 3-х скачавших


Display posts:    

Current time is: 21-Oct 21:19

All times are UTC + 3

You cannot post new topics in this forum
You cannot reply to topics in this forum
You cannot edit your posts in this forum
You cannot delete your posts in this forum
You cannot vote in polls in this forum
You cannot attach files in this forum
You cannot download files in this forum

The site does not give electronic versions of products, and is engaged only in a collecting and cataloguing of the references sent and published at a forum by our readers. If you are the legal owner of any submitted material and do not wish that the reference to it was in our catalogue, contact us and we shall immediately remove her. Files for an exchange on tracker are given by users of a site, and the administration does not bear the responsibility for their maintenance. The request to not fill in the files protected by copyrights, and also files of the illegal maintenance!