[ Сегодня идет свободное скачивание без начисления Download ]


Статистика раздачи
Нет
 
   
 
Top  
 
 
-Крутые виражи / Cool Runnings (1993) HDTVRip- Страна: США
Русское название: Крутые виражи
Оригинальное название: Cool Runnings
Год выпуска: 1993
Жанр: Комедия, Приключения, Семейный, Спорт
Описание фильма:
Четверо спортсменов из Ямайки мечтают ни много, ни мало — об участии в Олимпиаде. Причем им не важно в каком виде спорта выступать. А почему бы не бобслей!?
Чего только не сделаешь на пути к заветной мечте. Пусть даже этот путь ледяной, а мчаться приходится в непонятном снаряде.
Режиссер: Джон Тёртелтауб / Jon Turteltaub
Актеры: Леон (Derice Bannock), Даг Э. Даг (Sanka Coffie), Роул Д. Льюис (Junior Bevil), Мэлик Йоба (Yul Brenner), Джон Кэнди (Irving 'Irv' Blitzer), Рэймонд Дж. Бэрри (Kurt Hemphill), Питер Аутербридж (Josef Grool), Пол Койер (Roger), Лэрри Гилмен (Larry), Чарльз Хайатт (Whitby Bevil Sr.), Winston Stona (Coolidge), Bertina Macauley (Joy Bannock)
Продолжительность: 01:38:11
Перевод: Двухголосный закадровый, Одноголосный закадровый

Качество: HDTVRip (video & audio encoded by derdevil13 )
Формат: MKV
Видео: XviD, 704x400 (1.76:1), 23.976 fps, ~1529 kbps avg, 0.23 bit/pixel
Аудио 1: AC3, 48 kHz, 2/0 (L,R) ch, ~192 kbps, Русский, Двухголосный закадровый ("Видеосервис")
Аудио 2: AC3, 48 kHz, 2/0 (L,R) ch, ~192 kbps, Русский, Одноголосный закадровый (Дохалов)
Аудио 3: AC3, 48 kHz, 2/0 (L,R) ch, ~192 kbps, Русский, Одноголосный закадровый (Толстобров)
Аудио 4: AC3, 48 kHz, 2/0 (L,R) ch, ~192 kbps, Original, English
Субтитры: Русские, Английские
Навигация по главам: нет
Сэмпл: Ссылка

Mediainfo

General
Complete name : Крутые виражи. Cool Runnings.1993. (Комедия, приключения, семейный, спорт). HDTVRip.mkv
Format : Matroska
Format version : Version 1
File size : 1.58 GiB
Duration : 1h 38mn
Overall bit rate : 2 302 Kbps
Encoded date : UTC 2011-09-08 16:05:32
Writing application : mkvmerge v2.4.0 ('Fumbling Towards Ecstasy') built on Oct 11 2008 20:13:15
Writing library : libebml v0.7.7 + libmatroska v0.8.1
Video
ID : 1
Format : MPEG-4 Visual
Format profile : Advanced Simple@L5
Format settings, BVOP : Yes
Format settings, QPel : No
Format settings, GMC : No warppoints
Format settings, Matrix : Custom
Codec ID : V_MS/VFW/FOURCC / XVID
Codec ID/Hint : XviD
Duration : 1h 38mn
Bit rate : 1 488 Kbps
Width : 704 pixels
Height : 400 pixels
Display aspect ratio : 16:9
Frame rate mode : Constant
Frame rate : 23.976 fps
Color space : YUV
Chroma subsampling : 4:2:0
Bit depth : 8 bits
Scan type : Progressive
Compression mode : Lossy
Bits/(Pixel*Frame) : 0.220
Stream size : 1.02 GiB (65%)
Title : Крутые виражи / Cool Runnings [1993, США, комедия, приключения, семейный, спорт, HDTVRip]
Writing library : XviD 1.1.2 (UTC 2006-11-01)
Default : Yes
Forced : No
Audio #1
ID : 2
Format : AC-3
Format/Info : Audio Coding 3
Mode extension : CM (complete main)
Format settings, Endianness : Big
Codec ID : A_AC3
Duration : 1h 38mn
Bit rate mode : Constant
Bit rate : 192 Kbps
Channel(s) : 2 channels
Channel positions : Front: L R
Sampling rate : 48.0 KHz
Bit depth : 16 bits
Compression mode : Lossy
Stream size : 135 MiB (8%)
Title : DVO. Видеосервис
Language : Russian
Default : Yes
Forced : No
Audio #2
ID : 3
Format : AC-3
Format/Info : Audio Coding 3
Mode extension : CM (complete main)
Format settings, Endianness : Big
Codec ID : A_AC3
Duration : 1h 38mn
Bit rate mode : Constant
Bit rate : 192 Kbps
Channel(s) : 2 channels
Channel positions : Front: L R
Sampling rate : 48.0 KHz
Bit depth : 16 bits
Compression mode : Lossy
Stream size : 135 MiB (8%)
Title : AVO. Дохалов
Language : Russian
Default : No
Forced : No
Audio #3
ID : 4
Format : AC-3
Format/Info : Audio Coding 3
Mode extension : CM (complete main)
Format settings, Endianness : Big
Codec ID : A_AC3
Duration : 1h 38mn
Bit rate mode : Constant
Bit rate : 192 Kbps
Channel(s) : 2 channels
Channel positions : Front: L R
Sampling rate : 48.0 KHz
Bit depth : 16 bits
Compression mode : Lossy
Stream size : 135 MiB (8%)
Title : AVO. Толстобров
Language : Russian
Default : No
Forced : No
Audio #4
ID : 5
Format : AC-3
Format/Info : Audio Coding 3
Format profile : Dolby Digital
Mode extension : CM (complete main)
Format settings, Endianness : Big
Codec ID : A_AC3
Duration : 1h 38mn
Bit rate mode : Constant
Bit rate : 192 Kbps
Channel(s) : 2 channels
Channel positions : Front: L R
Sampling rate : 48.0 KHz
Bit depth : 16 bits
Compression mode : Lossy
Stream size : 135 MiB (8%)
Title : Original
Language : English
Default : No
Forced : No
Text #1
ID : 6
Format : UTF-8
Codec ID : S_TEXT/UTF8
Codec ID/Info : UTF-8 Plain Text
Title : Русские
Language : Russian
Default : No
Forced : No
Text #2
ID : 7
Format : UTF-8
Codec ID : S_TEXT/UTF8
Codec ID/Info : UTF-8 Plain Text
Title : Английские
Language : English
Default : No
Forced : No

Важно! О нестандартном наполнении контейнера mkv в данной раздаче!

Причиной нестандартного наполнения контейнера .mkv в данном случае было желание поместить все имеющиеся аудио дорожки и субтитры в один файл с имеющимся видео "вменяемого" размера и качества.
Сделано с помощью mkvmerge.
Файл воспроизводится корректно, рассинхрона/артефактов/рывков изображения (вызванных такой процедурой) - нет. Аудиодорожки переключаются стандартно. Перемотка в штатном режиме.
Однако, чтобы вы убедились в том, что именно у вас (в ваших конкретных условиях просмотра - PC, HD-медиаплеер, TV и пр.) этот файл будет воспроизводиться корректно, - скачайте, пожалуйста, сэмпл!

Моё мнение о фильме

Отличная комедия. По реальным событиям из мира спорта. Годится для семейного просмотра.
Рекомендую посмотреть.
Крутые виражи / Cool Runnings (1993) [1080i] HDTV
Скриншоты:


Время раздачи: днём (мск) по мере возможности.

[Цитировать]



Показать сообщения:    

Текущее время: 10-Дек 13:46

Часовой пояс: UTC + 3


Вы не можете начинать темы
Вы не можете отвечать на сообщения
Вы не можете редактировать свои сообщения
Вы не можете удалять свои сообщения
Вы не можете голосовать в опросах
Вы не можете прикреплять файлы к сообщениям
Вы не можете скачивать файлы

!ВНИМАНИЕ!
Сайт не предоставляет электронные версии произведений, а занимается лишь коллекционированием и каталогизацией ссылок, присылаемых и публикуемых на форуме нашими читателями. Если вы являетесь правообладателем какого-либо представленного материала и не желаете, чтобы ссылка на него находилась в нашем каталоге, свяжитесь с нами, и мы незамедлительно удалим ее. Файлы для обмена на трекере предоставлены пользователями сайта, и администрация не несет ответственности за их содержание. Просьба не заливать файлы, защищенные авторскими правами, а также файлы нелегального содержания!