[ Сегодня идет свободное скачивание без начисления Download ]


Статистика раздачи
Нет
 
   
 
Top  
 
 
-Шанхай / Shanghai (2010) BDRip
«In a world filled with secrets, solving a mystery can be murder.»
-- Русское название: Шанхай
Оригинальное название: Shanghai
Год выпуска: 2010
Страна: США, Китай
Жанр: триллер, драма, мелодрама, детектив, военный--Описание фильма:
Американский шпион приезжает в Шанхай с целью тайного расследования убийства своего друга, также работавшего на спецслужбы.--Режиссер: Микаэль Хофстрём
Актеры: Джон Кьюсак, Гун Ли, Чоу Юнь-Фат, Дэвид Морс, Кен Ватанабе, Франка Потенте, Джеффри Дин Морган, Ринко Кикучи, Хью Бонневилль, Энди Он...
Продолжительность: 01:44:36
Перевод: Многоголосый закадровый

Дата мировой премьеры: 10 июня 2010
Видеокодек: Xvid
Битрейт видео: ~2078 kbps
Размер кадра: 720*304
Качество видео: BDRip
Audio #1: 48 kHz, AC3 (6 ch), 448 kbps, русский
Audio #2: 48 kHz, AC3 (6 ch), 448 kbps, английский

MediaInfo:

General
Complete name                            : :\\Шанхай  (2010) BDRip.avi
Format                                   : AVI
Format/Info                              : Audio Video Interleave
Format profile                           : OpenDML
File size                                : 2.18 GiB
Duration                                 : 1h 44mn
Overall bit rate                         : 2 989 Kbps
Movie name                               : Шанхай / Shanghai (2010) BDRip
Director                                 : yaroslaigor
Genre                                    : триллер, драма, мелодрама
Writing application                      : VirtualDubMod 1.5.10.2 (build 2540/release)
Comment                                  : 22.06.2012
Video
ID                                       : 0
Format                                   : MPEG-4 Visual
Format profile                           : Advanced Simple@L5
Format settings, BVOP                    : 1
Format settings, QPel                    : No
Format settings, GMC                     : No warppoints
Format settings, Matrix                  : Custom
Codec ID                                 : XVID
Codec ID/Hint                            : XviD
Duration                                 : 1h 44mn
Bit rate                                 : 2 078 Kbps
Width                                    : 720 pixels
Height                                   : 304 pixels
Display aspect ratio                     : 2.35:1
Frame rate                               : 23.976 fps
Color space                              : YUV
Chroma subsampling                       : 4:2:0
Bit depth                                : 8 bits
Scan type                                : Progressive
Compression mode                         : Lossy
Bits/(Pixel*Frame)                       : 0.396
Stream size                              : 1.52 GiB (70%)
Writing library                          : XviD 72
Audio #1
ID                                       : 1
Format                                   : AC-3
Format/Info                              : Audio Coding 3
Mode extension                           : CM (complete main)
Format settings, Endianness              : Big
Codec ID                                 : 2000
Duration                                 : 1h 43mn
Bit rate mode                            : Constant
Bit rate                                 : 448 Kbps
Channel(s)                               : 6 channels
Channel positions                        : Front: L C R, Side: L R, LFE
Sampling rate                            : 48.0 KHz
Bit depth                                : 16 bits
Compression mode                         : Lossy
Stream size                              : 333 MiB (15%)
Alignment                                : Split accross interleaves
Interleave, duration                     : 42 ms (1.01 video frame)
Interleave, preload duration             : 500 ms
Audio #2
ID                                       : 2
Format                                   : AC-3
Format/Info                              : Audio Coding 3
Mode extension                           : CM (complete main)
Format settings, Endianness              : Big
Codec ID                                 : 2000
Duration                                 : 1h 44mn
Bit rate mode                            : Constant
Bit rate                                 : 448 Kbps
Channel(s)                               : 6 channels
Channel positions                        : Front: L C R, Side: L R, LFE
Sampling rate                            : 48.0 KHz
Bit depth                                : 16 bits
Compression mode                         : Lossy
Stream size                              : 335 MiB (15%)
Alignment                                : Split accross interleaves
Interleave, duration                     : 42 ms (1.00 video frame)
Interleave, preload duration             : 500 ms
Скриншоты:

[Цитировать]



Показать сообщения:    

Текущее время: 10-Дек 17:39

Часовой пояс: UTC + 3


Вы не можете начинать темы
Вы не можете отвечать на сообщения
Вы не можете редактировать свои сообщения
Вы не можете удалять свои сообщения
Вы не можете голосовать в опросах
Вы не можете прикреплять файлы к сообщениям
Вы не можете скачивать файлы

!ВНИМАНИЕ!
Сайт не предоставляет электронные версии произведений, а занимается лишь коллекционированием и каталогизацией ссылок, присылаемых и публикуемых на форуме нашими читателями. Если вы являетесь правообладателем какого-либо представленного материала и не желаете, чтобы ссылка на него находилась в нашем каталоге, свяжитесь с нами, и мы незамедлительно удалим ее. Файлы для обмена на трекере предоставлены пользователями сайта, и администрация не несет ответственности за их содержание. Просьба не заливать файлы, защищенные авторскими правами, а также файлы нелегального содержания!