[ Сегодня идет свободное скачивание без начисления Download ]


Статистика раздачи
Нет
 
   
 
Top  
 
 
-Ромео должен умереть / Romeo Must Die (2000) BDRip- Русское название: Ромео должен умереть
Оригинальное название: Romeo Must Die
Год выпуска: 2000
Жанр: Боевик, Триллер, Криминал
Описание фильма:
У них есть оружие. У них есть деньги. Но у них нет никаких шансов против бывшего полицейского Хан Синга. Джет Ли играет крутого и готового на все Хана, не без взаимности влюбленного в Триш О Дэй, несмотря на то, что их семьи ведут жестокую войну за передел в Окленде. Опасности объединяют влюбленных, когда они пытаются выяснить истинные причины кровавых разборок.
Режиссер: Анджей Бартковяк
Актеры: Джет Ли, Алия, Расселл Вонг, Айзэйя Вашингтон, DMX, Делрой Линдо, Д.Б. Вудсайд, Генри О, Джонкит Ли, Эдоардо Баллерини, Грейс Пак
Продолжительность: 01:55:04
Перевод: Дублированный, Авторский одноголосый (А.Гаврилов)

Дата мировой премьеры: 20 марта 2000
Дата российской премьеры: 7 сентября 2000
Дата выхода DVD релиза: 22 февраля 2012, «CP-Digital»
Видеокодек: Xvid
Битрейт видео: ~1420 Кбит/сек
Размер кадра: 720х304
Качество видео: BDRip
Аудио 1: AC3 5.1, 384 Кбит/сек, 48,0 КГц - Дубляж
Аудио 2: AC3 5.1, 384 Кбит/сек, 48,0 КГц - Авторский одноголосый (А.Гаврилов)
Сэмпл: Ссылка

MediaInfo

Формат : AVI
Формат/Информация : Audio Video Interleave
Размер файла : 1,77 Гбайт
Продолжительность : 1 ч. 55 м.
Общий поток : 2202 Кбит/сек
Программа кодирования : VirtualDubModRus 1.5.10.2 (build 2542/release)
Библиотека кодирования : VirtualDubMod build 2542/release
Видео
Идентификатор : 0
Формат : MPEG-4 Visual
Профиль формата : Advanced Simple@L5
Параметр BVOP формата : 1
Параметр QPel формата : Нет
Параметр GMC формата : Без точки перехода
Параметр матрицы формата : Выборочная
Идентификатор кодека : XVID
Идентификатор кодека/Подсказка : XviD
Продолжительность : 1 ч. 55 м.
Битрейт : 1420 Кбит/сек
Ширина : 720 пикселей
Высота : 304 пикселя
Соотношение сторон : 2,35:1
Частота кадров : 23,976 кадра/сек
Цветовое пространство : YUV
Субдискретизация насыщенности : 4:2:0
Битовая глубина : 8 бит
Тип развёртки : Прогрессивная
Метод сжатия : С потерями
Бит/(Пиксели*Кадры) : 0.271
Размер потока : 1,14 Гбайт (64%)
Библиотека кодирования : XviD 65
Аудио #1
Идентификатор : 1
Формат : AC-3
Формат/Информация : Audio Coding 3
Расширение режима : CM (complete main)
Идентификатор кодека : 2000
Продолжительность : 1 ч. 55 м.
Вид битрейта : Постоянный
Битрейт : 384 Кбит/сек
Каналы : 6 каналов
Расположение каналов : Front: L C R, Side: L R, LFE
Частота : 48,0 КГц
Битовая глубина : 16 бит
Метод сжатия : С потерями
Размер потока : 316 Мбайт (17%)
Выравнивание : Разделение по промежуткам
Продолжительность промежутка : 42 мс. (1,00 видеокадр)
Время предзагрузки промежутка : 500 мс.
Аудио #2
Идентификатор : 2
Формат : AC-3
Формат/Информация : Audio Coding 3
Расширение режима : CM (complete main)
Идентификатор кодека : 2000
Продолжительность : 1 ч. 55 м.
Вид битрейта : Постоянный
Битрейт : 384 Кбит/сек
Каналы : 6 каналов
Расположение каналов : Front: L C R, Side: L R, LFE
Частота : 48,0 КГц
Битовая глубина : 16 бит
Метод сжатия : С потерями
Размер потока : 316 Мбайт (17%)
Выравнивание : Разделение по промежуткам
Продолжительность промежутка : 42 мс. (1,00 видеокадр)
Время предзагрузки промежутка : 500 мс.
Скриншоты:

Время раздачи: С 12:00 до 18:00

[Цитировать]



Показать сообщения:    

Текущее время: 11-Дек 14:54

Часовой пояс: UTC + 3


Вы не можете начинать темы
Вы не можете отвечать на сообщения
Вы не можете редактировать свои сообщения
Вы не можете удалять свои сообщения
Вы не можете голосовать в опросах
Вы не можете прикреплять файлы к сообщениям
Вы не можете скачивать файлы

!ВНИМАНИЕ!
Сайт не предоставляет электронные версии произведений, а занимается лишь коллекционированием и каталогизацией ссылок, присылаемых и публикуемых на форуме нашими читателями. Если вы являетесь правообладателем какого-либо представленного материала и не желаете, чтобы ссылка на него находилась в нашем каталоге, свяжитесь с нами, и мы незамедлительно удалим ее. Файлы для обмена на трекере предоставлены пользователями сайта, и администрация не несет ответственности за их содержание. Просьба не заливать файлы, защищенные авторскими правами, а также файлы нелегального содержания!