[ Сегодня идет свободное скачивание без начисления Download ]


Статистика раздачи
Нет
 
   
 
Top  
 
 
Толстяк на ринге / Here Comes the Boom-«Юмор в тяжёлом весе»- Год выпуска: 2012
Страна: США
Жанр: боевик, комедия
Продолжительность: 01:44:55.289
Перевод: профессиональный (полное дублирование)
Оригинальная аудиодорожка: английский
Русские субтитры: есть
Навигация по главам: есть-Режиссер: Фрэнк Корачи / Frank Coraci-В ролях:
Кевин Джеймс (Scott Voss), Сальма Хайек (Bella Flores), Генри Уинклер (Marty Streb), Грег Джерманн (Principal Betcher), Джо Роган (играет самого себя), Гари Валентайн (Eric Voss), Чарис Пемпенгко (Malia), Бас Раттен (Niko), Регги Ли (Mr. De La Cruz), Марк ДеллаГротт (играет самого себя), Муки Баркер (Assistant Principal Elkins), Джеки Флинн (Joe Duffy)-Описание:
Учитель биологии в средней школе подрабатывает бойцом в смешанных боевых искусствах, пытаясь собрать деньги, чтобы сохранить школьную музыкальную программу.-Доп. информация: Kinopoisk | IMDB | Sample | MPAA: PG - Рекомендуется присутствие родителей-Качество: BDRip-AVC
Контейнер: MKV
Видео кодек: H.264
Аудио кодек: AC3
Видео: H.264, 1056x572, 23.976 fps, ~3076 kbps, Bits/(Pixel*Frame):0.212
Аудио 1: Русский: 48 kHz, AC3, 3/2 (L,C,R,l,r) + LFE ch, ~ 448.00 kbps
Аудио 2: Английский: 48 kHz, AC3, 3/2 (L,C,R,l,r) + LFE ch, ~ 448.00 kbps
Формат субтитров: softsub (SRT) | русские (с BD), английские (обычные и SDH), украинские

Скриншоты

- -Rip vs Source -Rip vs Source

MediaInfo | x264

x264

x264 [info]: frame I:1753 Avg QP:15.85 size: 99440
x264 [info]: frame P:33632 Avg QP:19.14 size: 32603
x264 [info]: frame B:115551 Avg QP:21.19 size: 9952
x264 [info]: consecutive B-frames: 2.3% 2.2% 6.3% 34.6% 16.6% 27.5% 4.9% 4.3% 0.6% 0.3% 0.2% 0.2%
x264 [info]: mb I I16..4: 3.4% 71.1% 25.5%
x264 [info]: mb P I16..4: 0.5% 7.8% 1.8% P16..4: 28.8% 35.6% 16.4% 3.5% 0.4% skip: 5.3%
x264 [info]: mb B I16..4: 0.1% 0.8% 0.2% B16..8: 36.5% 20.6% 4.1% direct: 4.6% skip:33.2% L0:41.4% L1:46.0% BI:12.6%
x264 [info]: 8x8 transform intra:75.1% inter:54.3%
x264 [info]: direct mvs spatial:99.4% temporal:0.6%
x264 [info]: coded y,uvDC,uvAC intra: 91.1% 86.0% 64.9% inter: 25.1% 16.5% 7.8%
x264 [info]: i16 v,h,dc,p: 17% 16% 8% 59%
x264 [info]: i8 v,h,dc,ddl,ddr,vr,hd,vl,hu: 8% 7% 4% 11% 15% 14% 14% 13% 13%
x264 [info]: i4 v,h,dc,ddl,ddr,vr,hd,vl,hu: 10% 8% 3% 10% 17% 14% 14% 11% 13%
x264 [info]: i8c dc,h,v,p: 40% 23% 18% 19%
x264 [info]: Weighted P-Frames: Y:3.0% UV:1.1%
x264 [info]: ref P L0: 49.7% 8.1% 14.6% 7.3% 5.4% 4.2% 3.4% 2.1% 1.6% 1.4% 1.2% 1.0% 0.1% 0.0%
x264 [info]: ref B L0: 76.0% 11.3% 5.0% 2.4% 1.7% 1.3% 1.0% 0.6% 0.5% 0.3% 0.1%
x264 [info]: ref B L1: 93.5% 6.5%
x264 [info]: kb/s:3076.25
General
Unique ID : 216818184895062187787401977207135618006 (0xA31DA9D9ACD52726B56BC8472C6B43D6)
Complete name : Here.Comes.the.Boom.2012.barm.mkv
Format : Matroska
Format version : Version 2
File size : 2.91 GiB
Duration : 1h 44mn
Overall bit rate : 3 975 Kbps
Movie name : Here Comes the Boom 2012
Encoded date : UTC 2013-03-02 15:15:16
Writing application : mkvmerge v5.8.0 ('No Sleep / Pillow') built on Sep 2 2012 15:37:04
Writing library : libebml v1.2.3 + libmatroska v1.3.0
Attachment : Yes
Video
ID : 1
Format : AVC
Format/Info : Advanced Video Codec
Format profile : [email protected]
Format settings, CABAC : Yes
Format settings, ReFrames : 12 frames
Codec ID : V_MPEG4/ISO/AVC
Duration : 1h 44mn
Bit rate : 3 076 Kbps
Width : 1 056 pixels
Height : 572 pixels
Display aspect ratio : 16:9
Frame rate : 23.976 fps
Color space : YUV
Chroma subsampling : 4:2:0
Bit depth : 8 bits
Scan type : Progressive
Bits/(Pixel*Frame) : 0.212
Stream size : 2.20 GiB (75%)
Title : Here Comes the Boom
Writing library : x264 core 129 r2245 bc13772
Encoding settings : cabac=1 / ref=12 / deblock=1:-2:-2 / analyse=0x3:0x133 / me=umh / subme=11 / psy=1 / psy_rd=1.10:0.00 / mixed_ref=1 / me_range=32 /
chroma_me=1 / trellis=2 / 8x8dct=1 / cqm=0 / deadzone=21,11 / fast_pskip=0 / chroma_qp_offset=-2 / threads=6 / lookahead_threads=1 / sliced_threads=0 / nr=0 / decimate=0 /
interlaced=0 / bluray_compat=0 / constrained_intra=0 / bframes=11 / b_pyramid=2 / b_adapt=2 / b_bias=0 / direct=3 / weightb=1 / open_gop=0 / weightp=2 / keyint=250 /
keyint_min=23 / scenecut=40 / intra_refresh=0 / rc_lookahead=60 / rc=2pass / mbtree=0 / bitrate=3076 / ratetol=1.0 / qcomp=0.65 / qpmin=0 / qpmax=69 / qpstep=4 /
cplxblur=20.0 / qblur=0.5 / vbv_maxrate=25000 / vbv_bufsize=31250 / nal_hrd=none / ip_ratio=1.40 / pb_ratio=1.30 / aq=2:0.80
Language : English
Default : Yes
Forced : No
Matrix coefficients : BT.709-5, BT.1361, IEC 61966-2-4 709, SMPTE RP177
Audio #1
ID : 2
Format : AC-3
Format/Info : Audio Coding 3
Mode extension : CM (complete main)
Codec ID : A_AC3
Duration : 1h 44mn
Bit rate mode : Constant
Bit rate : 448 Kbps
Channel(s) : 6 channels
Channel positions : Front: L C R, Side: L R, LFE
Sampling rate : 48.0 KHz
Bit depth : 16 bits
Compression mode : Lossy
Stream size : 336 MiB (11%)
Title : Dubljaz, 8 kHz, AC3, 3/2 (L,C,R,l,r) + LFE ch, ~ 448.00 kbps
Language : Russian
Default : Yes
Forced : No
Audio #2
ID : 3
Format : AC-3
Format/Info : Audio Coding 3
Mode extension : CM (complete main)
Codec ID : A_AC3
Duration : 1h 44mn
Bit rate mode : Constant
Bit rate : 448 Kbps
Channel(s) : 6 channels
Channel positions : Front: L C R, Side: L R, LFE
Sampling rate : 48.0 KHz
Bit depth : 16 bits
Compression mode : Lossy
Stream size : 336 MiB (11%)
Title : Original, 8 kHz, AC3, 3/2 (L,C,R,l,r) + LFE ch, ~ 448.00 kbps
Language : English
Default : No
Forced : No
Text #1
ID : 4
Format : UTF-8
Codec ID : S_TEXT/UTF8
Codec ID/Info : UTF-8 Plain Text
Title : Forced
Language : Russian
Default : Yes
Forced : No
Text #2
ID : 5
Format : UTF-8
Codec ID : S_TEXT/UTF8
Codec ID/Info : UTF-8 Plain Text
Title : BD
Language : Russian
Default : No
Forced : No
Text #3
ID : 6
Format : UTF-8
Codec ID : S_TEXT/UTF8
Codec ID/Info : UTF-8 Plain Text
Language : English
Default : No
Forced : No
Text #4
ID : 7
Format : UTF-8
Codec ID : S_TEXT/UTF8
Codec ID/Info : UTF-8 Plain Text
Title : SDH
Language : English
Default : No
Forced : No
Text #5
ID : 8
Format : UTF-8
Codec ID : S_TEXT/UTF8
Codec ID/Info : UTF-8 Plain Text
Language : Ukrainian
Default : No
Forced : No
Menu
00:00:00.000 : en:Chapter 1
00:08:41.896 : en:Chapter 2
00:12:53.606 : en:Chapter 3
00:18:21.934 : en:Chapter 4
00:27:42.577 : en:Chapter 5
00:34:16.888 : en:Chapter 6
00:42:40.558 : en:Chapter 7
00:49:34.846 : en:Chapter 8
00:55:49.596 : en:Chapter 9
01:02:05.972 : en:Chapter 10
01:06:42.373 : en:Chapter 11
01:11:09.556 : en:Chapter 12
01:17:27.184 : en:Chapter 13
01:22:00.040 : en:Chapter 14
01:33:03.327 : en:Chapter 15
01:38:50.466 : en:Chapter 16

Дополнительно о фильме

  • Кадры публики в сцене драки в MGM Grand были сняты в средней школе в старом Эверетте, штат Массачусетс, которую окончила Эллен Помпео в 1987 году. Так же это место использовалось для съемок фильма «Полиция Бостона» (2010).
  • Кевин Джеймс начал физическую подготовку к своей роли за 14 месяцев до съемок. Он сбросил около 70-80 фунтов.

[Цитировать]

Топик был перенесен из форума Новинки кинопроката в форум Боевик
Henkok



Показать сообщения:    

Текущее время: 05-Дек 17:33

Часовой пояс: UTC + 3


Вы не можете начинать темы
Вы не можете отвечать на сообщения
Вы не можете редактировать свои сообщения
Вы не можете удалять свои сообщения
Вы не можете голосовать в опросах
Вы не можете прикреплять файлы к сообщениям
Вы не можете скачивать файлы

!ВНИМАНИЕ!
Сайт не предоставляет электронные версии произведений, а занимается лишь коллекционированием и каталогизацией ссылок, присылаемых и публикуемых на форуме нашими читателями. Если вы являетесь правообладателем какого-либо представленного материала и не желаете, чтобы ссылка на него находилась в нашем каталоге, свяжитесь с нами, и мы незамедлительно удалим ее. Файлы для обмена на трекере предоставлены пользователями сайта, и администрация не несет ответственности за их содержание. Просьба не заливать файлы, защищенные авторскими правами, а также файлы нелегального содержания!