[ Сегодня идет свободное скачивание без начисления Download ]


Статистика раздачи
Нет
 
   
 
Top  
 
 
P R E S E N T SМонстры на каникулах / Hotel Transylvania- Страна: США
Жанр: мультфильм, комедия, приключения, семейный
Продолжительность: 01:31:31
Год выпуска: 2012
Перевод: Прфессиональный (полное дублирование)
Субтитры: есть-Режиссёр: Дженнди Тартаковский / Genndy Tartakovsky
Роли озвучивали: Адам Сэндлер, Энди Сэмберг, Селена Гомес, Кевин Джеймс, Фрэн Дрешер, Стив Бушеми, Молли Шеннон, Дэвид Спейд, Си-Ло, Джон Ловиц, Брайан Джордж, Луэнелль, Брайан Стэк, Крис Парнелл, Джеки Сэндлер, Сэди Сэндлер...
Роли дублировали: Сергей Бурунов, Александр Пушной, Полина Гагарина, Михаил Шац, Дмитрий Полонский, Татьяна Лазарева, Алексей Колган, Никита Прозоровский, Владимир Антоник, Диомид Виноградов, Даниил Эльдаров, Сергей Чихачев- | | -Описание: Граф Дракула для себя и своей любимой дочки построил хорошо укрытый от посторонних глаз отель, куда монстры со всего света приезжают отдохнуть от семейных забот, повседневной суеты и, конечно… людей. Но вездесущие американские туристы проникают и сюда...-Доп. информация: Полноформатный рип 1206х652 (1.850:1) с размером файла - 2.93 GB. В релиз включены - 3 звуковые дорожки и субтитры на 2-х языках.
Спасибо xfiles - за подготовку русских субтитров.
-Сэмпл/Sample (29,3 MB, 1 минута)-Качество: BDRip-AVC (Исходник: Hotel Transylvania 2012 BluRay 1080p AVC DTS-HD MA5.1-CHDBits)
Формат: MKV
Видео: 1206x652 (1.850:1), 23,976 fps, ~3241 kbps avg, 0.172 bit/pixel
Аудио #1: Русский, 48.0 KHz, AC3, 6 ch, 448 Kbps - Дубляж | BD CEE
Аудио #2: Украинский, 48.0 KHz, AC3, 6 ch, 448 Kbps - Дубляж | BD CEE
Аудио #3: English, 48.0 KHz, AC3, 6 ch, 448 Kbps - Original
Субтитры: Русские, English, English (SDH)
Навигация по главам: есть (16 не именованных глав)

MediaInfo / x264Log

x264Log

raw [info]: 1206x652p 1:1 @ 24000/1001 fps (cfr)
x264 [info]: using SAR=1/1
x264 [info]: using cpu capabilities: MMX2 SSE2Fast SSSE3 FastShuffle SSE4.2
x264 [info]: profile High, level 4.1
x264 [info]: frame I:1069 Avg QP:14.54 size:103283 PSNR Mean Y:48.55 U:51.08 V:50.74 Avg:49.19 Global:48.83
x264 [info]: frame P:32990 Avg QP:16.05 size: 34578 PSNR Mean Y:47.23 U:50.30 V:49.83 Avg:47.96 Global:47.48
x264 [info]: frame B:97604 Avg QP:19.24 size: 9974 PSNR Mean Y:46.39 U:49.85 V:49.40 Avg:47.20 Global:46.77
x264 [info]: consecutive B-frames: 4.7% 4.7% 6.9% 33.3% 14.7% 17.8% 5.6% 10.8% 0.9% 0.7%
x264 [info]: mb I I16..4: 3.1% 79.0% 17.8%
x264 [info]: mb P I16..4: 1.7% 19.6% 2.9% P16..4: 24.9% 26.9% 10.9% 1.9% 0.2% skip:10.9%
x264 [info]: mb B I16..4: 0.3% 2.6% 0.3% B16..8: 25.9% 16.8% 2.9% direct: 4.1% skip:47.0% L0:42.2% L1:46.0% BI:11.7%
x264 [info]: 8x8 transform intra:80.4% inter:58.4%
x264 [info]: coded y,uvDC,uvAC intra: 88.0% 85.5% 64.8% inter: 17.7% 13.8% 2.8%
x264 [info]: i16 v,h,dc,p: 8% 7% 3% 82%
x264 [info]: i8 v,h,dc,ddl,ddr,vr,hd,vl,hu: 11% 11% 7% 9% 12% 11% 12% 12% 15%
x264 [info]: i4 v,h,dc,ddl,ddr,vr,hd,vl,hu: 12% 11% 5% 9% 16% 13% 13% 10% 12%
x264 [info]: i8c dc,h,v,p: 31% 29% 20% 20%
x264 [info]: Weighted P-Frames: Y:5.7% UV:3.8%
x264 [info]: ref P L0: 50.5% 9.1% 17.1% 6.3% 5.2% 3.9% 3.5% 2.0% 2.0% 0.4% 0.0%
x264 [info]: ref B L0: 72.6% 11.6% 6.1% 3.4% 2.4% 2.1% 1.2% 0.5%
x264 [info]: ref B L1: 92.9% 7.1%
x264 [info]: SSIM Mean Y:0.9872686 (18.951db)
x264 [info]: PSNR Mean Y:46.618 U:49.971 V:49.520 Avg:47.405 Global:46.948 kb/s:3240.89
encoded 131663 frames, 3.60 fps, 3240.89 kb/s
General
Unique ID : 244913212270603422852412967271910706680 (0xB84091A551676EE99491ED7FB9A98DF8)
Complete name : Hotel.Transylvania.2012.BDRip.652p.dfcbit.mkv
Format : Matroska
Format version : Version 2
File size : 2.93 GiB
Duration : 1h 31mn
Overall bit rate : 4 587 Kbps
Encoded date : UTC 2013-01-26 15:48:59
Writing application : mkvmerge v4.0.0 ('The Stars were mine') built on Jun 6 2010 16:18:42
Writing library : libebml v1.0.0 + libmatroska v1.0.0
Video
ID : 1
Format : AVC
Format/Info : Advanced Video Codec
Format profile : High@L4.1
Format settings, CABAC : Yes
Format settings, ReFrames : 9 frames
Codec ID : V_MPEG4/ISO/AVC
Duration : 1h 31mn
Bit rate : 3 241 Kbps
Width : 1 206 pixels
Height : 652 pixels
Display aspect ratio : 1.850
Frame rate : 23.976 fps
Color space : YUV
Chroma subsampling : 4:2:0
Bit depth : 8 bits
Scan type : Progressive
Bits/(Pixel*Frame) : 0.172
Stream size : 2.07 GiB (69%)
Title : NTSC, 1206x652 (1.850:1), BDRip 652p - tRuAVC & Multfilmy [DFCbit]
Writing library : x264 core 129 r2245kMod bc13772
Encoding settings : cabac=1 / ref=9 / deblock=1:-2:-2 / analyse=0x3:0x133 / me=umh / subme=11 / psy=1 / fade_compensate=0.00 / psy_rd=0.60:0.00 / mixed_ref=1 / me_range=32 / chroma_me=1 / trellis=2 / 8x8dct=1 / cqm=0 / deadzone=21,11 / fast_pskip=0 / chroma_qp_offset=-2 / threads=6 / lookahead_threads=1 / sliced_threads=0 / nr=0 / decimate=1 / interlaced=0 / bluray_compat=0 / constrained_intra=0 / bframes=9 / b_pyramid=2 / b_adapt=2 / b_bias=0 / direct=1 / weightb=1 / open_gop=0 / weightp=2 / keyint=250 / keyint_min=23 / scenecut=40 / intra_refresh=0 / rc_lookahead=70 / rc=crf / mbtree=0 / crf=17.8200 / qcomp=0.80 / qpmin=0 / qpmax=69 / qpstep=4 / vbv_maxrate=50000 / vbv_bufsize=62500 / crf_max=0.0 / nal_hrd=none / ip_ratio=1.40 / pb_ratio=1.30 / aq=3:0.90
Language : English
Default : Yes
Forced : No
Color primaries : BT.709-5, BT.1361, IEC 61966-2-4, SMPTE RP177
Transfer characteristics : BT.709-5, BT.1361
Matrix coefficients : BT.709-5, BT.1361, IEC 61966-2-4 709, SMPTE RP177
Audio #1
ID : 2
Format : AC-3
Format/Info : Audio Coding 3
Mode extension : CM (complete main)
Codec ID : A_AC3
Duration : 1h 31mn
Bit rate mode : Constant
Bit rate : 448 Kbps
Channel(s) : 6 channels
Channel positions : Front: L C R, Side: L R, LFE
Sampling rate : 48.0 KHz
Bit depth : 16 bits
Compression mode : Lossy
Stream size : 293 MiB (10%)
Title : AC3, 6 ch, 48 kHz, 448 kbps, Dubbing
Language : Russian
Default : Yes
Forced : No
Audio #2
ID : 3
Format : AC-3
Format/Info : Audio Coding 3
Mode extension : CM (complete main)
Codec ID : A_AC3
Duration : 1h 31mn
Bit rate mode : Constant
Bit rate : 448 Kbps
Channel(s) : 6 channels
Channel positions : Front: L C R, Side: L R, LFE
Sampling rate : 48.0 KHz
Bit depth : 16 bits
Compression mode : Lossy
Stream size : 293 MiB (10%)
Title : AC3, 6 ch, 48 kHz, 448 kbps, Dubbing
Language : Ukrainian
Default : No
Forced : No
Audio #3
ID : 4
Format : AC-3
Format/Info : Audio Coding 3
Mode extension : CM (complete main)
Codec ID : A_AC3
Duration : 1h 31mn
Bit rate mode : Constant
Bit rate : 448 Kbps
Channel(s) : 6 channels
Channel positions : Front: L C R, Side: L R, LFE
Sampling rate : 48.0 KHz
Bit depth : 16 bits
Compression mode : Lossy
Stream size : 293 MiB (10%)
Title : AC3, 6 ch, 48 kHz, 448 kbps, Original
Language : English
Default : No
Forced : No
Text #1
ID : 5
Format : UTF-8
Codec ID : S_TEXT/UTF8
Codec ID/Info : UTF-8 Plain Text
Title : SRT, Full
Language : Russian
Default : No
Forced : No
Text #2
ID : 6
Format : UTF-8
Codec ID : S_TEXT/UTF8
Codec ID/Info : UTF-8 Plain Text
Title : SRT, Full
Language : English
Default : No
Forced : No
Text #3
ID : 7
Format : UTF-8
Codec ID : S_TEXT/UTF8
Codec ID/Info : UTF-8 Plain Text
Title : SRT, (SDH)
Language : English
Default : No
Forced : No
Menu
00:00:00.000 : en:Chapter 01
00:04:49.372 : en:Chapter 02
00:10:23.790 : en:Chapter 03
00:14:19.275 : en:Chapter 04
00:19:25.498 : en:Chapter 05
00:25:11.218 : en:Chapter 06
00:29:49.413 : en:Chapter 07
00:35:50.815 : en:Chapter 08
00:41:11.636 : en:Chapter 09
00:46:29.537 : en:Chapter 10
00:53:50.227 : en:Chapter 11
00:57:44.795 : en:Chapter 12
01:04:15.268 : en:Chapter 13
01:08:48.499 : en:Chapter 14
01:15:20.599 : en:Chapter 15
01:18:50.643 : en:Chapter 16

Скриншоты

Скриншот с названием мультфильма
--BDRip-AVC


Source Blu-Ray

[Цитировать]



Показать сообщения:    

Текущее время: 10-Дек 13:49

Часовой пояс: UTC + 3


Вы не можете начинать темы
Вы не можете отвечать на сообщения
Вы не можете редактировать свои сообщения
Вы не можете удалять свои сообщения
Вы не можете голосовать в опросах
Вы не можете прикреплять файлы к сообщениям
Вы не можете скачивать файлы

!ВНИМАНИЕ!
Сайт не предоставляет электронные версии произведений, а занимается лишь коллекционированием и каталогизацией ссылок, присылаемых и публикуемых на форуме нашими читателями. Если вы являетесь правообладателем какого-либо представленного материала и не желаете, чтобы ссылка на него находилась в нашем каталоге, свяжитесь с нами, и мы незамедлительно удалим ее. Файлы для обмена на трекере предоставлены пользователями сайта, и администрация не несет ответственности за их содержание. Просьба не заливать файлы, защищенные авторскими правами, а также файлы нелегального содержания!