[ Сегодня идет свободное скачивание без начисления Download ]


Статистика раздачи
Нет
 
   
 
Top  
 
 
P R E S E N T SХрабрая сердцем / Brave- Страна: США
Жанр: мультфильм, фэнтези, комедия, приключения, семейный
Продолжительность: 01:34:12
Год выпуска: 2012
Перевод: Прфессиональный (полное дублирование)
Субтитры: есть-Режиссёр: Марк Эндрюс, Бренда Чэпман, Стив Пурселл / Mark Andrews, Brenda Chapman, Steve Purcell
Роли озвучивали: Келли Макдоналд, Эмма Томпсон, Билли Коннолли, Джули Уолтерс, Робби Колтрейн, Кевин МакКидд, Крэйг Фергюсон, Сэлли Кингхорн, Эйлид Фрайзер, Пейджи Баркер, Стивен Кри, Стив Пурселл, Каллум О’Нилл, Джон Ратценбергер...
Роли дублировали: Лиза Арзамасова, Татьяна Веденеева, Михаил Шуфутинский, Александр Аравушкин, Александр Ромашов, Юрий Герцман, Анна Потебня, Василий Ракша, Андрей Матвеев, Анвар Халилулаев- | | -Описание: Испокон веков мифы и легенды окутывают загадочной пеленой живописные отроги Шотландских гор. Искусной лучнице Мериде приходится выбирать свой путь в жизни самостоятельно, и однажды она отказывается следовать древним традициям королевства, бросая вызов могущественным шотландским кланам и их предводителям: нескладному лорду МакГаффину, угрюмому лорду Макинтошу и сварливому лорду Дингволлу. Неосторожные поступки Мериды грозят повергнуть королевство в хаос, и тогда она отправляется за советом к эксцентричной отшельнице, которая вместо помощи накладывает на Мериду опасное заклятье. Юной принцессе предстоит полагаться только на собственную храбрость, чтобы преодолеть могущественное волшебство и победить самого страшного зверя из тех, что водятся в горных долинах...-Доп. информация: Полноформатный рип 1194x500 (2.40:1) сделан с Blu-Ray диска Храбрая сердцем / Brave (2012) Blu-ray CEE 1080p AVC DD 5.1.
Отдельное спасибо - xfiles, за подготовку русских и украинских субтитров.
-Сэмпл/Sample (40.39 MB, 1 минута)-Качество: BDRip-AVC
Формат: MKV
Видео: 1194x500 (2.40:1), 23,976 fps, ~2682 kbps avg, 0.187 bit/pixel
Аудио #1: Русский, 48.0 KHz, AC3, 6 ch, 448 Kbps - Дубляж | BD CEE
Аудио #2: Украинский, 48.0 KHz, AC3, 6 ch, 448 Kbps - Дубляж | BD CEE
Аудио #3: English, 48.0 KHz, AC3, 6 ch, 448 Kbps - Original
Субтитры: Русские, Украинские, English, English (SDH)
Навигация по главам: есть (37 именованных глав)

MediaInfo / x264Log

x264Log

raw [info]: 1194x500p 1:1 @ 24000/1001 fps (cfr)
x264 [info]: using SAR=1/1
x264 [info]: using cpu capabilities: MMX2 SSE2Fast SSSE3 FastShuffle SSE4.2
x264 [info]: profile High, level 4.1
x264 [info]: frame I:1282 Avg QP:13.99 size: 86714 PSNR Mean Y:49.16 U:50.77 V:50.81 Avg:49.63 Global:48.98
x264 [info]: frame P:34917 Avg QP:16.01 size: 26726 PSNR Mean Y:47.80 U:49.64 V:49.76 Avg:48.32 Global:47.51
x264 [info]: frame B:99318 Avg QP:19.36 size: 8560 PSNR Mean Y:47.39 U:49.44 V:49.50 Avg:47.95 Global:47.14
x264 [info]: consecutive B-frames: 2.8% 5.6% 6.4% 54.7% 11.4% 14.6% 1.7% 1.8% 0.3% 0.4% 0.2%
x264 [info]: mb I I16..4: 3.4% 75.3% 21.3%
x264 [info]: mb P I16..4: 0.7% 14.0% 2.9% P16..4: 25.1% 27.3% 12.7% 2.9% 0.3% skip:14.1%
x264 [info]: mb B I16..4: 0.2% 2.6% 0.5% B16..8: 27.3% 17.4% 3.2% direct: 3.4% skip:45.3% L0:38.3% L1:46.2% BI:15.5%
x264 [info]: 8x8 transform intra:78.7% inter:56.7%
x264 [info]: coded y,uvDC,uvAC intra: 86.1% 87.7% 72.8% inter: 16.6% 13.7% 5.2%
x264 [info]: i16 v,h,dc,p: 19% 10% 6% 65%
x264 [info]: i8 v,h,dc,ddl,ddr,vr,hd,vl,hu: 13% 10% 8% 8% 11% 11% 11% 12% 15%
x264 [info]: i4 v,h,dc,ddl,ddr,vr,hd,vl,hu: 32% 7% 7% 7% 11% 10% 10% 8% 9%
x264 [info]: i8c dc,h,v,p: 40% 25% 19% 16%
x264 [info]: Weighted P-Frames: Y:3.6% UV:1.7%
x264 [info]: ref P L0: 56.1% 9.1% 13.8% 6.4% 4.2% 3.9% 3.0% 1.8% 1.5% 0.2% 0.0%
x264 [info]: ref B L0: 80.6% 8.1% 4.7% 2.3% 1.7% 1.4% 0.9% 0.3%
x264 [info]: ref B L1: 94.6% 5.4%
x264 [info]: SSIM Mean Y:0.9898548 (19.937db)
x264 [info]: PSNR Mean Y:47.516 U:49.506 V:49.577 Avg:48.059 Global:47.248 kb/s:2681.52
encoded 135517 frames, 4.86 fps, 2681.52 kb/s
GeneralUnique ID : 182622456355158421454183810647171951477 (0x8963CE43BE86813CB9562FDE59166B75)General
Unique ID : 182622456355158421454183810647171951477 (0x8963CE43BE86813CB9562FDE59166B75)
Complete name : Brave.2012.Rus.Video.BDRip.500p.tRuAVC.&.Multfilmy.mkv
Format : Matroska
Format version : Version 2
File size : 2.65 GiB
Duration : 1h 34mn
Overall bit rate : 4 028 Kbps
Encoded date : UTC 2012-11-23 20:37:27
Writing application : mkvmerge v4.0.0 ('The Stars were mine') built on Jun 6 2010 16:18:42
Writing library : libebml v1.0.0 + libmatroska v1.0.0
Video
ID : 1
Format : AVC
Format/Info : Advanced Video Codec
Format profile : [email protected]
Format settings, CABAC : Yes
Format settings, ReFrames : 9 frames
Codec ID : V_MPEG4/ISO/AVC
Duration : 1h 34mn
Bit rate : 2 682 Kbps
Width : 1 194 pixels
Height : 500 pixels
Display aspect ratio : 2.40:1
Frame rate : 23.976 fps
Color space : YUV
Chroma subsampling : 4:2:0
Bit depth : 8 bits
Scan type : Progressive
Bits/(Pixel*Frame) : 0.187
Stream size : 1.76 GiB (65%)
Title : NTSC, 1194x500 (2.40:1), BDRip - tRuAVC & Multfilmy [DFCbit]
Writing library : x264 core 128 r2216kMod 198a7ea
Encoding settings : cabac=1 / ref=9 / deblock=1:-2:-1 / analyse=0x3:0x133 / me=umh / subme=11 / psy=1 / fade_compensate=0.00 / psy_rd=0.60:0.00 / mixed_ref=1 / me_range=32 / chroma_me=1 / trellis=2 / 8x8dct=1 / cqm=0 / deadzone=21,11 / fast_pskip=0 / chroma_qp_offset=-2 / threads=6 / lookahead_threads=1 / sliced_threads=0 / nr=0 / decimate=1 / interlaced=0 / bluray_compat=0 / constrained_intra=0 / bframes=10 / b_pyramid=2 / b_adapt=2 / b_bias=0 / direct=1 / weightb=1 / open_gop=0 / weightp=2 / keyint=250 / keyint_min=23 / scenecut=40 / intra_refresh=0 / rc_lookahead=70 / rc=crf / mbtree=0 / crf=17.6400 / qcomp=0.80 / qpmin=0 / qpmax=69 / qpstep=4 / vbv_maxrate=50000 / vbv_bufsize=62500 / crf_max=0.0 / nal_hrd=none / ip_ratio=1.40 / pb_ratio=1.30 / aq=3:0.90
Language : Russian
Default : Yes
Forced : No
Color primaries : BT.709-5, BT.1361, IEC 61966-2-4, SMPTE RP177
Transfer characteristics : BT.709-5, BT.1361
Matrix coefficients : BT.709-5, BT.1361, IEC 61966-2-4 709, SMPTE RP177
Audio #1
ID : 2
Format : AC-3
Format/Info : Audio Coding 3
Mode extension : CM (complete main)
Codec ID : A_AC3
Duration : 1h 34mn
Bit rate mode : Constant
Bit rate : 448 Kbps
Channel(s) : 6 channels
Channel positions : Front: L C R, Side: L R, LFE
Sampling rate : 48.0 KHz
Bit depth : 16 bits
Compression mode : Lossy
Stream size : 302 MiB (11%)
Title : AC3, 6 ch, 48 kHz, 448 kbps, Dubbing [BD CEE]
Language : Russian
Default : Yes
Forced : No
Audio #2
ID : 3
Format : AC-3
Format/Info : Audio Coding 3
Mode extension : CM (complete main)
Codec ID : A_AC3
Duration : 1h 34mn
Bit rate mode : Constant
Bit rate : 448 Kbps
Channel(s) : 6 channels
Channel positions : Front: L C R, Side: L R, LFE
Sampling rate : 48.0 KHz
Bit depth : 16 bits
Compression mode : Lossy
Stream size : 302 MiB (11%)
Title : AC3, 6 ch, 48 kHz, 448 kbps, Dubbing [BD CEE]
Language : Ukrainian
Default : No
Forced : No
Audio #3
ID : 4
Format : AC-3
Format/Info : Audio Coding 3
Mode extension : CM (complete main)
Codec ID : A_AC3
Duration : 1h 34mn
Bit rate mode : Constant
Bit rate : 448 Kbps
Channel(s) : 6 channels
Channel positions : Front: L C R, Side: L R, LFE
Sampling rate : 48.0 KHz
Bit depth : 16 bits
Compression mode : Lossy
Stream size : 302 MiB (11%)
Title : AC3, 6 ch, 48 kHz, 448 kbps, Original
Language : English
Default : No
Forced : No
Text #1
ID : 5
Format : UTF-8
Codec ID : S_TEXT/UTF8
Codec ID/Info : UTF-8 Plain Text
Title : SRT, Full [BD CEE]
Language : Russian
Default : No
Forced : No
Text #2
ID : 6
Format : UTF-8
Codec ID : S_TEXT/UTF8
Codec ID/Info : UTF-8 Plain Text
Title : SRT, Full [BD CEE]
Language : Ukrainian
Default : No
Forced : No
Text #3
ID : 7
Format : UTF-8
Codec ID : S_TEXT/UTF8
Codec ID/Info : UTF-8 Plain Text
Title : SRT, Full
Language : English
Default : No
Forced : No
Text #4
ID : 8
Format : UTF-8
Codec ID : S_TEXT/UTF8
Codec ID/Info : UTF-8 Plain Text
Title : SRT, (SDH)
Language : English
Default : No
Forced : No
Menu
00:00:00.000 : ru:01. День рождения
00:04:22.846 : ru:02. Мерида
00:09:17.432 : ru:03. Семейная трапеза
00:12:53.356 : ru:04. Легенды учат
00:14:00.256 : ru:05. Просто послушай
00:16:10.469 : ru:06. Подготовка
00:17:36.681 : ru:07. Знакомство с лордами
00:22:55.791 : ru:08. Игры
00:27:22.891 : ru:09. Ссора
00:28:51.229 : ru:10. Мерида убегает
00:30:54.853 : ru:11. Искусная резчица
00:34:00.372 : ru:12. Заклятье
00:36:03.495 : ru:13. Кекс
00:39:06.928 : ru:14. Превращение
00:41:55.096 : ru:15. Охота в замке
00:43:27.980 : ru:16. Тройняшки сбивают с пути
00:47:05.740 : ru:17. Клочья
00:48:22.358 : ru:18. Послание из котла
00:51:04.061 : ru:19. Память
00:52:33.859 : ru:20. Рассвет
00:54:01.155 : ru:21. Завтрак
00:54:45.699 : ru:22. Рыбалка с мамой
00:57:30.864 : ru:23. Погоня
00:59:00.162 : ru:24. Руины
01:02:48.181 : ru:25. Блокада
01:03:27.387 : ru:26. Помощь мамы
01:09:57.735 : ru:27. Гобелен
01:10:37.275 : ru:28. Медведь в замке
01:12:35.726 : ru:29. Отчаяние
01:13:39.498 : ru:30. Ключ
01:15:35.489 : ru:31. К спасению
01:16:59.073 : ru:32. Противоборство
01:17:37.111 : ru:33. Медвежья схватка
01:19:48.200 : ru:34. Второй рассвет
01:23:16.783 : ru:35. Эпилог
01:24:38.657 : ru:36. Финальные титры
01:33:27.602 : ru:37. Доставка

Скриншоты

Локализация
--BDRip-AVC


Source Blu-Ray

[Цитировать]



Показать сообщения:    

Текущее время: 05-Дек 13:36

Часовой пояс: UTC + 3


Вы не можете начинать темы
Вы не можете отвечать на сообщения
Вы не можете редактировать свои сообщения
Вы не можете удалять свои сообщения
Вы не можете голосовать в опросах
Вы не можете прикреплять файлы к сообщениям
Вы не можете скачивать файлы

!ВНИМАНИЕ!
Сайт не предоставляет электронные версии произведений, а занимается лишь коллекционированием и каталогизацией ссылок, присылаемых и публикуемых на форуме нашими читателями. Если вы являетесь правообладателем какого-либо представленного материала и не желаете, чтобы ссылка на него находилась в нашем каталоге, свяжитесь с нами, и мы незамедлительно удалим ее. Файлы для обмена на трекере предоставлены пользователями сайта, и администрация не несет ответственности за их содержание. Просьба не заливать файлы, защищенные авторскими правами, а также файлы нелегального содержания!