[ Сегодня идет свободное скачивание без начисления Download ]


Статистика раздачи
Нет
 
   
 
Top  
 
 
P R E S E N T SМадагаскар 3 / Madagascar 3: Europe's Most Wanted- Страна: США
Жанр: мультфильм, приключения, семейный
Продолжительность: 01:33:24
Год выпуска: 2012
Перевод: Профессиональный (полное дублирование)
Субтитры: есть
Навигация по главам: есть (16 не именованных глав)-Режиссёр: Эрик Дарнелл, Том МакГрат, Конрад Вернон / Eric Darnell, Tom McGrath, Conrad Vernon
Роли озвучивали: Бен Стиллер, Крис Рок, Дэвид Швиммер, Джада Пинкетт Смит, Саша Барон Коэн, Седрик «Развлекатель», Энди Рихтер, Фрэнсис МакДорманд, Джессика Честейн, Брайан Крэнстон, Мартин Шорт, Крис Миллер, Кристофер Найтс...
Роли дублировали: Константин Хабенский, Оскар Кучера, Александр Цекало, Маша Малиновская, Андрей Лёвин, Диомид Виноградов, Анатолий Дубанов, Даниил Щебланов, Александр Дасевич, Прохор Чеховской, Илья Хвостиков, Иван Жарков- | | -Описание: Лев Алекс, зебра Марти, гиппопотамиха Глория и жираф Мелман, а также король Джулиан, Морис, Морт и Пингвины все еще пытаются вернуться в Нью-Йорк. На этот раз их путь пройдет через Европу, где они откроют свой цирк...-Доп. информация: Видеоряд достаточно динамичный и хочет "кушать" битрейт...
Отдельное спасибо xfiles за подготовку субтитров.
-Сэмпл/Sample || Зеркала (30.84 MB, 1 минута)-Качество: BDRip-AVC (Исходник: Madagascar 3: Europe's Most Wanted (2012) Blu-ray CEE 1080p AVC DD5.1 - HDClub)
Формат: MKV
Видео: 1152x648 (1.778:1) , 23,976 fps, ~4274 kbps avg, 0.239 bit/pixel
Аудио #1: Русский, 48.0 KHz, AC3, 6 ch, 448 Kbps - Дубляж
Аудио #2: Украинский, 48.0 KHz, AC3, 6 ch, 448 Kbps - Дубляж
Аудио #3: English, 48.0 KHz, AC3, 6 ch, 448 Kbps - Original
Аудио #4: English, 48.0 KHz, AC3, 2 ch, 192 Kbps - Commentary
Субтитры: Русские, Украинские, English

MediaInfo / x264Log

x264Log

raw [info]: 1152x648p 1:1 @ 24000/1001 fps (cfr)
x264 [info]: using SAR=1/1
x264 [info]: using cpu capabilities: MMX2 SSE2Fast SSSE3 FastShuffle SSE4.2
x264 [info]: profile High, level 4.1
x264 [info]: frame I:1398 Avg QP:15.41 size:129769 PSNR Mean Y:47.22 U:49.86 V:49.87 Avg:47.87 Global:47.41
x264 [info]: frame P:35710 Avg QP:17.12 size: 40987 PSNR Mean Y:45.97 U:48.76 V:48.75 Avg:46.64 Global:45.99
x264 [info]: frame B:97257 Avg QP:21.14 size: 13872 PSNR Mean Y:44.94 U:48.10 V:48.08 Avg:45.67 Global:45.04
x264 [info]: consecutive B-frames: 3.9% 4.5% 17.9% 33.7% 16.8% 20.2% 1.6% 0.7% 0.4% 0.2% 0.2%
x264 [info]: mb I I16..4: 3.7% 67.2% 29.1%
x264 [info]: mb P I16..4: 1.3% 15.3% 3.7% P16..4: 25.2% 28.0% 13.7% 3.4% 0.4% skip: 9.1%
x264 [info]: mb B I16..4: 0.3% 2.6% 0.6% B16..8: 28.9% 19.6% 4.1% direct: 4.7% skip:39.3% L0:40.0% L1:42.0% BI:18.0%
x264 [info]: 8x8 transform intra:74.2% inter:53.9%
x264 [info]: coded y,uvDC,uvAC intra: 86.6% 86.1% 70.8% inter: 20.1% 17.7% 7.3%
x264 [info]: i16 v,h,dc,p: 21% 11% 4% 64%
x264 [info]: i8 v,h,dc,ddl,ddr,vr,hd,vl,hu: 13% 13% 7% 8% 11% 10% 12% 11% 14%
x264 [info]: i4 v,h,dc,ddl,ddr,vr,hd,vl,hu: 13% 11% 6% 8% 16% 12% 13% 9% 12%
x264 [info]: i8c dc,h,v,p: 37% 26% 18% 20%
x264 [info]: Weighted P-Frames: Y:2.5% UV:1.5%
x264 [info]: ref P L0: 52.4% 10.0% 15.1% 6.7% 4.7% 3.9% 3.0% 1.9% 1.7% 0.4% 0.0%
x264 [info]: ref B L0: 73.9% 11.3% 5.7% 3.2% 2.5% 1.9% 1.1% 0.3%
x264 [info]: ref B L1: 91.4% 8.6%
x264 [info]: SSIM Mean Y:0.9887829 (19.501db)
x264 [info]: PSNR Mean Y:45.236 U:48.295 V:48.273 Avg:45.947 Global:45.295 kb/s:4274.32
encoded 134365 frames, 3.49 fps, 4274.32 kb/s
General
Unique ID : 211815203924446122301706121982051508715 (0x9F5A1FD81E5BD09F9995C1561B1A61EB)
Complete name : Madagaskar.III.2012.BDRip.tRuAVC.&.Multfilmy.mkv
Format : Matroska
Format version : Version 2
File size : 3.79 GiB
Duration : 1h 33mn
Overall bit rate : 5 813 Kbps
Encoded date : UTC 2012-10-12 18:34:26
Writing application : mkvmerge v4.0.0 ('The Stars were mine') built on Jun 6 2010 16:18:42
Writing library : libebml v1.0.0 + libmatroska v1.0.0
Video
ID : 1
Format : AVC
Format/Info : Advanced Video Codec
Format profile : High@L4.1
Format settings, CABAC : Yes
Format settings, ReFrames : 9 frames
Codec ID : V_MPEG4/ISO/AVC
Duration : 1h 33mn
Bit rate : 4 274 Kbps
Width : 1 152 pixels
Height : 648 pixels
Display aspect ratio : 16:9
Frame rate : 23.976 fps
Color space : YUV
Chroma subsampling : 4:2:0
Bit depth : 8 bits
Scan type : Progressive
Bits/(Pixel*Frame) : 0.239
Stream size : 2.79 GiB (72%)
Title : NTSC, 1152x648 (1.778:1), BDRip - tRuAVC & Multfilmy [DFCbit]
Writing library : x264 core 128 r2216kMod 198a7ea
Encoding settings : cabac=1 / ref=9 / deblock=1:-2:-1 / analyse=0x3:0x133 / me=umh / subme=11 / psy=1 / fade_compensate=0.00 / psy_rd=0.60:0.00 / mixed_ref=1 / me_range=32 / chroma_me=1 / trellis=2 / 8x8dct=1 / cqm=0 / deadzone=21,11 / fast_pskip=0 / chroma_qp_offset=-2 / threads=6 / lookahead_threads=1 / sliced_threads=0 / nr=0 / decimate=1 / interlaced=0 / bluray_compat=0 / constrained_intra=0 / bframes=10 / b_pyramid=2 / b_adapt=2 / b_bias=0 / direct=1 / weightb=1 / open_gop=0 / weightp=2 / keyint=250 / keyint_min=23 / scenecut=40 / intra_refresh=0 / rc_lookahead=70 / rc=crf / mbtree=0 / crf=17.4600 / qcomp=0.80 / qpmin=0 / qpmax=69 / qpstep=4 / vbv_maxrate=50000 / vbv_bufsize=62500 / crf_max=0.0 / nal_hrd=none / ip_ratio=1.40 / pb_ratio=1.30 / aq=3:0.90
Language : English
Default : Yes
Forced : No
Color primaries : BT.709-5, BT.1361, IEC 61966-2-4, SMPTE RP177
Transfer characteristics : BT.709-5, BT.1361
Matrix coefficients : BT.709-5, BT.1361, IEC 61966-2-4 709, SMPTE RP177
Audio #1
ID : 2
Format : AC-3
Format/Info : Audio Coding 3
Mode extension : CM (complete main)
Codec ID : A_AC3
Duration : 1h 33mn
Bit rate mode : Constant
Bit rate : 448 Kbps
Channel(s) : 6 channels
Channel positions : Front: L C R, Side: L R, LFE
Sampling rate : 48.0 KHz
Bit depth : 16 bits
Compression mode : Lossy
Stream size : 299 MiB (8%)
Title : AC3, 6 ch, 48 kHz, 448 kbps, Dubbing
Language : Russian
Default : Yes
Forced : No
Audio #2
ID : 3
Format : AC-3
Format/Info : Audio Coding 3
Mode extension : CM (complete main)
Codec ID : A_AC3
Duration : 1h 33mn
Bit rate mode : Constant
Bit rate : 448 Kbps
Channel(s) : 6 channels
Channel positions : Front: L C R, Side: L R, LFE
Sampling rate : 48.0 KHz
Bit depth : 16 bits
Compression mode : Lossy
Stream size : 299 MiB (8%)
Title : AC3, 6 ch, 48 kHz, 448 kbps, Dubbing
Language : Ukrainian
Default : No
Forced : No
Audio #3
ID : 4
Format : AC-3
Format/Info : Audio Coding 3
Mode extension : CM (complete main)
Codec ID : A_AC3
Duration : 1h 33mn
Bit rate mode : Constant
Bit rate : 448 Kbps
Channel(s) : 6 channels
Channel positions : Front: L C R, Side: L R, LFE
Sampling rate : 48.0 KHz
Bit depth : 16 bits
Compression mode : Lossy
Stream size : 299 MiB (8%)
Title : AC3, 6 ch, 48 kHz, 448 kbps, Original
Language : English
Default : No
Forced : No
Audio #4
ID : 5
Format : AC-3
Format/Info : Audio Coding 3
Mode extension : CM (complete main)
Codec ID : A_AC3
Duration : 1h 33mn
Bit rate mode : Constant
Bit rate : 192 Kbps
Channel(s) : 2 channels
Channel positions : Front: L R
Sampling rate : 48.0 KHz
Bit depth : 16 bits
Compression mode : Lossy
Stream size : 128 MiB (3%)
Title : AC3, 2 ch, 48 kHz, 192 kbps, Commentary
Language : English
Default : No
Forced : No
Text #1
ID : 6
Format : UTF-8
Codec ID : S_TEXT/UTF8
Codec ID/Info : UTF-8 Plain Text
Title : SRT, Full
Language : Russian
Default : No
Forced : No
Text #2
ID : 7
Format : UTF-8
Codec ID : S_TEXT/UTF8
Codec ID/Info : UTF-8 Plain Text
Title : SRT, Forced
Language : Russian
Default : No
Forced : No
Text #3
ID : 8
Format : UTF-8
Codec ID : S_TEXT/UTF8
Codec ID/Info : UTF-8 Plain Text
Title : SRT, Full
Language : Ukrainian
Default : No
Forced : No
Text #4
ID : 9
Format : UTF-8
Codec ID : S_TEXT/UTF8
Codec ID/Info : UTF-8 Plain Text
Title : SRT, Forced
Language : Ukrainian
Default : No
Forced : No
Text #5
ID : 10
Format : UTF-8
Codec ID : S_TEXT/UTF8
Codec ID/Info : UTF-8 Plain Text
Title : SRT, Full
Language : English
Default : No
Forced : No
Menu
00:00:00.000 : en:Chapter 1
00:05:16.316 : en:Chapter 2
00:10:51.985 : en:Chapter 3
00:19:46.310 : en:Chapter 4
00:27:49.835 : en:Chapter 5
00:32:50.552 : en:Chapter 6
00:40:34.974 : en:Chapter 7
00:46:51.976 : en:Chapter 8
00:52:00.534 : en:Chapter 9
00:58:55.157 : en:Chapter 10
01:00:23.411 : en:Chapter 11
01:04:19.314 : en:Chapter 12
01:10:59.672 : en:Chapter 13
01:15:30.317 : en:Chapter 14
01:21:09.782 : en:Chapter 15
01:22:48.630 : en:Chapter 16

Скриншоты

BDRip-AVC


Source Blu-Ray

[Цитировать]



Показать сообщения:    

Текущее время: 08-Дек 05:12

Часовой пояс: UTC + 3


Вы не можете начинать темы
Вы не можете отвечать на сообщения
Вы не можете редактировать свои сообщения
Вы не можете удалять свои сообщения
Вы не можете голосовать в опросах
Вы не можете прикреплять файлы к сообщениям
Вы не можете скачивать файлы

!ВНИМАНИЕ!
Сайт не предоставляет электронные версии произведений, а занимается лишь коллекционированием и каталогизацией ссылок, присылаемых и публикуемых на форуме нашими читателями. Если вы являетесь правообладателем какого-либо представленного материала и не желаете, чтобы ссылка на него находилась в нашем каталоге, свяжитесь с нами, и мы незамедлительно удалим ее. Файлы для обмена на трекере предоставлены пользователями сайта, и администрация не несет ответственности за их содержание. Просьба не заливать файлы, защищенные авторскими правами, а также файлы нелегального содержания!