[ Сегодня идет свободное скачивание без начисления Download ]


Статистика раздачи
Нет
 
   
 
Top  
 
 
-Поворот не туда 5: Кровное родство / Wrong Turn 5: Bloodlines (2012) BDRip-«Страх поглотит тебя» - Русское название: Поворот не туда 5: Кровное родство
Оригинальное название: Wrong Turn 5: Bloodlines
Год выпуска: 2012
Производство: США / 20th Century Fox Home Entertainment
Жанр: Ужасы, Триллер
Перевод: Профессиональный (Многоголосый) [Лицензия]
Субтитры: Нет.-Дата мировой премьеры: 18 октября 2012-Режиссер: Деклан О’Брайэн
Продюсер: Джеффри Бич, Филлип Дж. Рот, Чериз Хони
Актеры: Камилла Арфведсон, Даг Брэдли, Оливер Хоар, Роксанна МакКи, Эми Леннокс, Дункан Уисби, Радослав Парванов, Джордж Карлуковский-Описание фильма:
Маленький городок в Западной Вирджинии проводит ежегодный фестиваль «Горный человек», посвящённый Хэллоуину. Туда направляется группа студентов колледжа, однако они не подозревают, что шумная костюмированная вечеринка с музыкой и выпивкой обернётся для них кровавым кошмаром — на фестиваль направляется семья горных каннибалов.- -MPAA: R - Лицам до 17 лет обязательно присутствие взрослого
Продолжительность: 01:30:49
Качество видео: BDRip-Видеокодек: Xvid
Формат: AVI
Видео: 704x400 (1.76:1), 23.976 fps, XviD build 65 ~1505 kbps avg, 0.22 bit/pixel
Аудио 1: 48 kHz, AC3 Dolby Digital, 3/2 (L,C,R,l,r) + LFE ch, ~384.00 kbps avg | Русский
Аудио 2: 48 kHz, AC3 Dolby Digital, 3/2 (L,C,R,l,r) + LFE ch, ~384.00 kbps avg | Английский-

Знаете ли Вы, что...

В номере мотеля группа подростков из колледжа планирует пойти на фестиваль Mountain Man. Джулиан подсчитывает, что 4 билета по $90 каждый будут стоить всего $260, а не $360.
Когда Круз выходит из комнаты, в которой сидели друзья, на ней только топ и брюки. В следующей сцене на ней появляется жилет.

MediaInfo:

General
Complete name : J:\Поворот не туда 5. Кровное родство Wrong Turn 5. Bloodlines (2012).avi
Format : AVI
Format/Info : Audio Video Interleave
File size : 1.45 GiB
Duration : 1h 30mn
Overall bit rate : 2 287 Kbps
Movie name : Wrong Turn 5 (2012)
Director : Ermac [1/3 DVD5, BDRemux 1080p]
Writing application : VirtualDubModRus 1.5.10.2 (build 2542/release)
Copyright :
Video
ID : 0
Format : MPEG-4 Visual
Format profile : Advanced Simple@L5
Format settings, BVOP : 2
Format settings, QPel : No
Format settings, GMC : No warppoints
Format settings, Matrix : Custom
Codec ID : XVID
Codec ID/Hint : XviD
Duration : 1h 30mn
Bit rate : 1 505 Kbps
Width : 704 pixels
Height : 400 pixels
Display aspect ratio : 16:9
Frame rate : 23.976 fps
Color space : YUV
Chroma subsampling : 4:2:0
Bit depth : 8 bits
Scan type : Progressive
Compression mode : Lossy
Bits/(Pixel*Frame) : 0.223
Stream size : 978 MiB (66%)
Writing library : XviD 65
Audio #1
ID : 1
Format : AC-3
Format/Info : Audio Coding 3
Mode extension : CM (complete main)
Format settings, Endianness : Big
Codec ID : 2000
Duration : 1h 30mn
Bit rate mode : Constant
Bit rate : 384 Kbps
Channel(s) : 6 channels
Channel positions : Front: L C R, Side: L R, LFE
Sampling rate : 48.0 KHz
Bit depth : 16 bits
Compression mode : Lossy
Stream size : 249 MiB (17%)
Alignment : Split accross interleaves
Interleave, duration : 42 ms (1.00 video frame)
Interleave, preload duration : 500 ms
Audio #2
ID : 2
Format : AC-3
Format/Info : Audio Coding 3
Mode extension : CM (complete main)
Format settings, Endianness : Big
Codec ID : 2000
Duration : 1h 30mn
Bit rate mode : Constant
Bit rate : 384 Kbps
Channel(s) : 6 channels
Channel positions : Front: L C R, Side: L R, LFE
Sampling rate : 48.0 KHz
Bit depth : 16 bits
Compression mode : Lossy
Stream size : 249 MiB (17%)
Alignment : Split accross interleaves
Interleave, duration : 42 ms (1.00 video frame)
Interleave, preload duration : 500 ms
Скриншоты:
Время раздачи: С 23:00 до 8:30 (24/7 - круглосуточно)

[Цитировать]



Показать сообщения:    

Текущее время: 10-Дек 21:36

Часовой пояс: UTC + 3


Вы не можете начинать темы
Вы не можете отвечать на сообщения
Вы не можете редактировать свои сообщения
Вы не можете удалять свои сообщения
Вы не можете голосовать в опросах
Вы не можете прикреплять файлы к сообщениям
Вы не можете скачивать файлы

!ВНИМАНИЕ!
Сайт не предоставляет электронные версии произведений, а занимается лишь коллекционированием и каталогизацией ссылок, присылаемых и публикуемых на форуме нашими читателями. Если вы являетесь правообладателем какого-либо представленного материала и не желаете, чтобы ссылка на него находилась в нашем каталоге, свяжитесь с нами, и мы незамедлительно удалим ее. Файлы для обмена на трекере предоставлены пользователями сайта, и администрация не несет ответственности за их содержание. Просьба не заливать файлы, защищенные авторскими правами, а также файлы нелегального содержания!