[ Сегодня идет свободное скачивание без начисления Download ]


Статистика раздачи
Нет
 
   
 
Top  
 
 
-Мастера угрозы (Возмутители спокойствия) / Masters of Menace (1990) VHSRip- Страна: США
Русское название: Мастера угрозы (Возмутители спокойствия)
Оригинальное название: Masters of Menace
Год выпуска: 1990
Жанр: Комедия, Приключения
Описание фильма:
Веселая бригада немолодых уже байкеров во главе с Бадди Уилером получает условный срок: при первом же правонарушении они всем скопом сядут в тюрьму. Молодой адвокат, защищавший байкеров, вынужден присоединиться к ним, чтобы контролировать их поведение и уберечь от проступков.
Прокурор же, метящий в губернаторы, напротив, мечтает упечь байкеров за решетку любыми средствами. Для этого он посылает своего помощника шпионить за мотоциклистами.
Режиссер: Дэниел Рэсков / Daniel Raskov
Актеры: Дэвид Раш, Кэтрин Бах, Тино Инсана, Ли Винг, Дэвид Бове, Лонни Паркинсон, Кэрол Энн Сьюзи, Джон Хэзелвуд, Дэвид Л. Лэндер, С.Э. Граймс, Джеймс Белуши, Дэн Эйкройд, Джон Кэнди
Продолжительность: 01:37:27
Перевод: Одноголосный закадровый

Качество: VHSRip by alenavova
Формат: AVI
Видео: XviD, 512x368 (1.39:1), 25 fps, ~865 kbps avg, 0.18 bit/pixel
Аудио: MP3, 2 ch, ~128.00 kbps avg, Русский, Одноголосный закадровый (Ю. Живов)
Оригинальная дорожка: нет
Субтитры: нет
Сэмпл: Ссылка

Mediainfo

General
Complete name : Мастера угрозы (Возмутители спокойствия). Masters of Menace. 1990. VHSRip. by alenavova.avi
Format : AVI
Format/Info : Audio Video Interleave
File size : 699 MiB
Duration : 1h 37mn
Overall bit rate : 1 003 Kbps
Movie name : Masters Of Menace
Director : alenavova
Genre : Comedy,Adventure
Writing application : FairUse Wizard
Original source form/Name : Movie
Copyright : VHSRip by alenavova
Comment : 22.12.11
Video
ID : 0
Format : MPEG-4 Visual
Format profile : Advanced [email protected]
Format settings, BVOP : 1
Format settings, QPel : No
Format settings, GMC : No warppoints
Format settings, Matrix : Default (MPEG)
Muxing mode : Packed bitstream
Codec ID : XVID
Codec ID/Hint : XviD
Duration : 1h 37mn
Bit rate : 866 Kbps
Width : 512 pixels
Height : 368 pixels
Display aspect ratio : 1.391
Frame rate : 25.000 fps
Color space : YUV
Chroma subsampling : 4:2:0
Bit depth : 8 bits
Scan type : Progressive
Compression mode : Lossy
Bits/(Pixel*Frame) : 0.184
Stream size : 604 MiB (86%)
Writing library : XviD 1.2.0.dev47 (UTC 2006-11-01)
Audio
ID : 1
Format : MPEG Audio
Format version : Version 1
Format profile : Layer 3
Mode : Joint stereo
Mode extension : MS Stereo
Codec ID : 55
Codec ID/Hint : MP3
Duration : 1h 37mn
Bit rate mode : Constant
Bit rate : 128 Kbps
Channel(s) : 2 channels
Sampling rate : 48.0 KHz
Compression mode : Lossy
Stream size : 89.2 MiB (13%)
Alignment : Aligned on interleaves
Interleave, duration : 40 ms (1.00 video frame)
Interleave, preload duration : 504 ms
Writing library : LAME3.97ЄЄЄЄЄЄЄЄЄЄЄЄ

Важно! О качестве видео и звука в этом релизе!

Предупреждая вопросы о качестве видео и звука отвечу сразу и коротко.
На этом трекере я сделал 2 релиза этого фильма: TVRip с многоголосым переводом и VHSRip с одноголосным переводом.
Лучшего качества, чем в этих двух релизах, - не существует!
Для того, чтобы удостовериться, что вы будете без претензий к кому бы то ни было смотреть этот фильм, скачайте, пожалуйста, сэмпл!
Фильм редкий и при этом хороший. Такое вот сочетание.
Приятного просмотра!

Благодарности

Оцифровка VHS (личный архив) и получение VHSRip by alenavova
Все благодарности за этот релиз уходят к alenavova

Альтернативное описание фильма

Пародийная комедия на фильмы о мотоциклистах-байкерах, для которых жизнь - это "харлеи", пиво, татуировки и драки. Веселая бригада немолодых уже байкеров во главе с Дэвидом Раше получает условный срок - при первом же правонарушении они все должны сесть в тюрьму. Молодой адвокат, выигравший их защиту, вынужден присоединиться к ребятам, чтобы следить за их хорошим поведением. Прокурор же, метящий в губернаторы, должен засадить байкеров любыми средствами. Для этого он посылает следить своего молодого помощника за ними, он же регулярно попадает головой в унитаз. Эксцентрическая, очень смешная комедия в духе "Полицейской академии" во многом выигрывает, благодаря маленьким ролям таких больших комиков, как Джеймс Белуши, Джон Кэнди и Дэн Эйкройд.
(Иванов М.)
Мастера угрозы (Возмутители спокойствия) / Masters of Menace (1990) TVRip
Скриншоты:


Время раздачи: днём (мск) по мере возможности.

[Цитировать]



Показать сообщения:    

Текущее время: 05-Дек 03:34

Часовой пояс: UTC + 3


Вы не можете начинать темы
Вы не можете отвечать на сообщения
Вы не можете редактировать свои сообщения
Вы не можете удалять свои сообщения
Вы не можете голосовать в опросах
Вы не можете прикреплять файлы к сообщениям
Вы не можете скачивать файлы

!ВНИМАНИЕ!
Сайт не предоставляет электронные версии произведений, а занимается лишь коллекционированием и каталогизацией ссылок, присылаемых и публикуемых на форуме нашими читателями. Если вы являетесь правообладателем какого-либо представленного материала и не желаете, чтобы ссылка на него находилась в нашем каталоге, свяжитесь с нами, и мы незамедлительно удалим ее. Файлы для обмена на трекере предоставлены пользователями сайта, и администрация не несет ответственности за их содержание. Просьба не заливать файлы, защищенные авторскими правами, а также файлы нелегального содержания!