[ Сегодня идет свободное скачивание без начисления Download ]


Статистика раздачи
Нет
 
   
 
Top  
 
 
-Мастера угрозы (Возмутители спокойствия) / Masters of Menace (1990) TVRip- Страна: США
Русское название: Мастера угрозы (Возмутители спокойствия)
Оригинальное название: Masters of Menace
Год выпуска: 1990
Жанр: Комедия, Приключения
Описание фильма:
Веселая бригада немолодых уже байкеров во главе с Бадди Уилером получает условный срок: при первом же правонарушении они всем скопом сядут в тюрьму. Молодой адвокат, защищавший байкеров, вынужден присоединиться к ним, чтобы контролировать их поведение и уберечь от проступков.
Прокурор же, метящий в губернаторы, напротив, мечтает упечь байкеров за решетку любыми средствами. Для этого он посылает своего помощника шпионить за мотоциклистами.
Режиссер: Дэниел Рэсков / Daniel Raskov
Актеры: Дэвид Раш, Кэтрин Бах, Тино Инсана, Ли Винг, Дэвид Бове, Лонни Паркинсон, Кэрол Энн Сьюзи, Джон Хэзелвуд, Дэвид Л. Лэндер, С.Э. Граймс, Джеймс Белуши, Дэн Эйкройд, Джон Кэнди
Продолжительность: 01:31:18
Перевод: Многоголосый закадровый

Качество: TVRip ("1-й канал") by balanaza
Формат: AVI
Видео: DivX 5, 720x576, 25.00fps, 1344Kbps
Аудио: MP3, 44100Hz, stereo, 191Kbps, Русский, Многоголосый закадровый ("1-й канал")
Оригинальная дорожка: нет
Субтитры: нет
Сэмпл: Ссылка

Mediainfo

General
Complete name : Мастера угрозы (Возмутители спокойствия). Masters of Menace. 1990. TVRip.avi
Format : AVI
Format/Info : Audio Video Interleave
File size : 1 011 MiB
Duration : 1h 31mn
Overall bit rate : 1 549 Kbps
Writing application : Lavf51.12.1
Video
ID : 0
Format : MPEG-4 Visual
Format profile : [email protected]
Format settings, BVOP : No
Format settings, QPel : No
Format settings, GMC : No warppoints
Format settings, Matrix : Default (H.263)
Codec ID : DX50
Codec ID/Hint : DivX 5
Duration : 1h 31mn
Bit rate : 1 344 Kbps
Width : 720 pixels
Height : 576 pixels
Display aspect ratio : 4:3
Frame rate : 25.000 fps
Standard : PAL
Color space : YUV
Chroma subsampling : 4:2:0
Bit depth : 8 bits
Scan type : Progressive
Compression mode : Lossy
Bits/(Pixel*Frame) : 0.130
Stream size : 878 MiB (87%)
Writing library : Lavc51.40.4
Audio
ID : 1
Format : MPEG Audio
Format version : Version 1
Format profile : Layer 3
Mode : Joint stereo
Codec ID : 55
Codec ID/Hint : MP3
Duration : 1h 31mn
Bit rate mode : Constant
Bit rate : 192 Kbps
Channel(s) : 2 channels
Sampling rate : 44.1 KHz
Compression mode : Lossy
Stream size : 125 MiB (12%)
Alignment : Aligned on interleaves
Interleave, duration : 26 ms (0.65 video frame)
Interleave, preload duration : 26 ms

Важно! О качестве видео и звука в этом релизе!

Предупреждая вопросы о качестве видео и звука отвечу сразу и коротко.
На этом трекере я сделал 2 релиза этого фильма: TVRip с многоголосым переводом и VHSRip с одноголосным переводом.
Лучшего качества, чем в этих двух релизах, - не существует!
Для того, чтобы удостовериться, что вы будете без претензий к кому бы то ни было смотреть этот фильм, скачайте, пожалуйста, сэмпл!
Фильм редкий и при этом хороший. Такое вот сочетание.
Приятного просмотра!

Альтернативное описание фильма

Пародийная комедия на фильмы о мотоциклистах-байкерах, для которых жизнь - это "харлеи", пиво, татуировки и драки. Веселая бригада немолодых уже байкеров во главе с Дэвидом Раше получает условный срок - при первом же правонарушении они все должны сесть в тюрьму. Молодой адвокат, выигравший их защиту, вынужден присоединиться к ребятам, чтобы следить за их хорошим поведением. Прокурор же, метящий в губернаторы, должен засадить байкеров любыми средствами. Для этого он посылает следить своего молодого помощника за ними, он же регулярно попадает головой в унитаз. Эксцентрическая, очень смешная комедия в духе "Полицейской академии" во многом выигрывает, благодаря маленьким ролям таких больших комиков, как Джеймс Белуши, Джон Кэнди и Дэн Эйкройд.
(Иванов М.)
Мастера угрозы (Возмутители спокойствия) / Masters of Menace (1990) VHSRip
Скриншоты:


Время раздачи: днём (мск) по мере возможности.

[Цитировать]



Показать сообщения:    

Текущее время: 05-Дек 13:35

Часовой пояс: UTC + 3


Вы не можете начинать темы
Вы не можете отвечать на сообщения
Вы не можете редактировать свои сообщения
Вы не можете удалять свои сообщения
Вы не можете голосовать в опросах
Вы не можете прикреплять файлы к сообщениям
Вы не можете скачивать файлы

!ВНИМАНИЕ!
Сайт не предоставляет электронные версии произведений, а занимается лишь коллекционированием и каталогизацией ссылок, присылаемых и публикуемых на форуме нашими читателями. Если вы являетесь правообладателем какого-либо представленного материала и не желаете, чтобы ссылка на него находилась в нашем каталоге, свяжитесь с нами, и мы незамедлительно удалим ее. Файлы для обмена на трекере предоставлены пользователями сайта, и администрация не несет ответственности за их содержание. Просьба не заливать файлы, защищенные авторскими правами, а также файлы нелегального содержания!