[ Сегодня идет свободное скачивание без начисления Download ]


Статистика раздачи
Нет
 
   
 
Top  
 
 
-Большие надежды / Great Expectations (2012) BDRip- Русское название: Большие надежды
Оригинальное название: Great Expectations
Год выпуска: 2012
Производство: Великобритания, США
Жанр: Драма
Перевод: Дублированный (Лицензия)
Субтитры: Вшитые отключаемые
Язык субтитров: Русский
Режиссер: Майк Ньюэлл
Актеры: Джереми Ирвин, Холлидей Грейнджер, Рэйф Файнс, Хелена Бонем Картер, Джейсон Флеминг, Робби Колтрейн, Юэн Бремнер, Салли Хокинс, Дэвид Уоллиамс, Софи Рандл
Описание фильма:
В центре сюжета — история молодого человека по имени Пип, который рано остался без родителей и был воспитан взбалмошной сестрой. Серая жизнь Пипа круто меняется, когда он помогает на кладбище освободиться от кандалов беглому каторжнику. Именно этот поступок вскоре приводит к череде головокружительных событий в жизни молодого человека.

Дата мировой премьеры: 11 сентября 2012
Дата российской премьеры: 24 января 2013, «Каравелла DDC»
Дата выхода DVD релиза: 6 марта 2013, «Кармен Видео», «ВС трейд»
Продолжительность: 02:08:13
Качество видео: BDRip [720p]
Видеокодек: MPEG-4 AVC/H.264
Видео: 1280x720, ~6879 Кбит/с
Аудио: AC3, 6 ch, 640 Кбит/с (Дублированный, Русский)

MediaInfo:

Общее
Уникальный идентификатор : 177558878983279282942921717174000182035 (0x859498A01391DE78A7977208E0E06313)
Полное имя : Great.Expectations.2012.BDRip.720p.mkv
Формат : Matroska
Версия формата : Version 2
Размер файла : 6,87 Гбайт
Продолжительность : 2 ч. 8 м.
Общий поток : 7672 Кбит/сек
Название фильма : IRONCLUB
Дата кодирования : UTC 2013-03-03 08:00:23
Программа кодирования : mkvmerge v5.2.0 ('I can't explain') built on Dec 18 2011 18:12:03
Библиотека кодирования : libebml v1.2.3 + libmatroska v1.3.0
Видео
Идентификатор : 1
Формат : AVC
Формат/Информация : Advanced Video Codec
Профиль формата : High@L4.1
Параметр CABAC формата : Да
Параметр ReFrames формата : 9 кадров
Идентификатор кодека : V_MPEG4/ISO/AVC
Продолжительность : 2 ч. 8 м.
Битрейт : 6879 Кбит/сек
Ширина : 1280 пикселей
Высота : 720 пикселей
Соотношение сторон : 16:9
Частота кадров : 24,000 кадра/сек
Цветовое пространство : YUV
Субдискретизация насыщенности : 4:2:0
Битовая глубина : 8 бит
Тип развёртки : Прогрессивная
Бит/(Пиксели*Кадры) : 0.311
Размер потока : 6,16 Гбайт (90%)
Заголовок : Great Expectations 2012 720p BluRay DD5.1 x264-IRONCLUB
Библиотека кодирования : x264 core 129 r2245 bc13772
Настройки программы : cabac=1 / ref=9 / deblock=1:-3:-3 / analyse=0x3:0x113 / me=umh / subme=10 / psy=1 / psy_rd=1.10:0.00 / mixed_ref=1 / me_range=32 / chroma_me=1 / trellis=2 / 8x8dct=1 / cqm=0 / deadzone=21,11 / fast_pskip=0 / chroma_qp_offset=-2 / threads=12 / lookahead_threads=2 / sliced_threads=0 / nr=0 / decimate=1 / interlaced=0 / bluray_compat=0 / constrained_intra=0 / bframes=7 / b_pyramid=2 / b_adapt=2 / b_bias=0 / direct=3 / weightb=1 / open_gop=0 / weightp=2 / keyint=250 / keyint_min=24 / scenecut=40 / intra_refresh=0 / rc_lookahead=40 / rc=crf / mbtree=0 / crf=17.7 / qcomp=0.70 / qpmin=0 / qpmax=69 / qpstep=4 / vbv_maxrate=50000 / vbv_bufsize=62500 / crf_max=0.0 / nal_hrd=none / ip_ratio=1.30 / pb_ratio=1.20 / aq=1:0.80
Язык : English
Default : Да
Forced : Да
Аудио
Идентификатор : 2
Формат : AC-3
Формат/Информация : Audio Coding 3
Расширение режима : CM (complete main)
Идентификатор кодека : A_AC3
Продолжительность : 2 ч. 8 м.
Вид битрейта : Постоянный
Битрейт : 640 Кбит/сек
Каналы : 6 каналов
Расположение каналов : Front: L C R, Side: L R, LFE
Частота : 48,0 КГц
Битовая глубина : 16 бит
Метод сжатия : С потерями
Размер потока : 587 Мбайт (8%)
Заголовок : DD 5.1 @ 640 kbps
Язык : Russian
Default : Да
Forced : Да
Текст
Идентификатор : 3
Формат : UTF-8
Идентификатор кодека : S_TEXT/UTF8
Идентификатор кодека/Информация : UTF-8 Plain Text
Язык : Russian
Default : Нет
Forced : Нет
Меню
00:00:00.000 : en:00:00:00.000
00:11:04.333 : en:00:11:04.333
00:24:06.666 : en:00:24:06.666
00:30:45.166 : en:00:30:45.166
00:41:31.375 : en:00:41:31.375
00:52:14.666 : en:00:52:14.666
01:02:26.708 : en:01:02:26.708
01:12:29.583 : en:01:12:29.583
01:23:26.000 : en:01:23:26.000
01:36:57.708 : en:01:36:57.708
01:52:02.041 : en:01:52:02.041
02:01:56.458 : en:02:01:56.458
Скриншоты:


Время раздачи: Обычно с 19:00 до 00:00

[Цитировать]

Топик был перенесен из форума Новинки кинопроката (HD Video) в форум Зарубежное кино (HD Video)
Bootch



Показать сообщения:    

Текущее время: 02-Дек 21:04

Часовой пояс: UTC + 3


Вы не можете начинать темы
Вы не можете отвечать на сообщения
Вы не можете редактировать свои сообщения
Вы не можете удалять свои сообщения
Вы не можете голосовать в опросах
Вы не можете прикреплять файлы к сообщениям
Вы не можете скачивать файлы

!ВНИМАНИЕ!
Сайт не предоставляет электронные версии произведений, а занимается лишь коллекционированием и каталогизацией ссылок, присылаемых и публикуемых на форуме нашими читателями. Если вы являетесь правообладателем какого-либо представленного материала и не желаете, чтобы ссылка на него находилась в нашем каталоге, свяжитесь с нами, и мы незамедлительно удалим ее. Файлы для обмена на трекере предоставлены пользователями сайта, и администрация не несет ответственности за их содержание. Просьба не заливать файлы, защищенные авторскими правами, а также файлы нелегального содержания!