[ Сегодня идет свободное скачивание без начисления Download ]


Статистика раздачи
Нет
 
   
 
Top  
 
 
-Простые истины / Straight A's (2013) BDRip- Русское название: Простые истины
Оригинальное название: Straight A's
Год выпуска: 2013
Производство: США | Group Films, The, Millennium Films, Nu Image Films
Жанр: Драма, Комедия
Перевод: Многоголосый закадровый, профессиональный [НТВ+]
Субтитры: Отсутствуют
Режиссер: Джеймс Кокс / James Cox
Продюсер: Рене Бессон, Скут МакНэйри, Джон Пирс
Актеры: Анна Пэкуин, Райан Филипп, Люк Уилсон, Пауэрс Бут, Райли Стюарт, Урсула Паркер, Криста Кэмпбелл, Тесс Харпер, Симона Левин, Джонни Браннон Описание фильма:
Описание фильма:
Молодой человек на протяжении десяти лет регулярно проходил курс лечения в реабилитационном центре. По настоянию духа его покойной матери он возвращается к родным, от которых отдалился много лет назад. В результате он встречается со своим братом и его женой, которая до сих пор в него влюблена.

Дата мировой премьеры: 16 января 2013
Продолжительность: 01:28:14
Качество видео: BDRip 1080p
Видеокодек: MPEG-4 AVC/H.264
Видео: H.264, 11380 Кбит/с, 1920x782, 23,976 кадра/сек
Аудио #1: Русский: AC3, 2.0, 192 кбит/с, 48 kHz, 16 bit | Многоголосый закадровый |
Аудио #2: Английский: DTS, 5.1, 1536 кбит/с, 48 kHz, 24 bit Общее
Уникальный идентификатор : 204099594290036923505407127231975418541 (0x998C26EB4F612C0595B36E6E4B6C6AAD)
Полное имя : D:\Video\NewMovies\Straight.As.2013.BluRay.1080p.x264.ac3.dtsRus.Eng.NTV.mkv
Формат : Matroska
Версия формата : Version 2
Размер файла : 8,07 Гбайт
Продолжительность : 1 ч. 28 м.
Общий поток : 13,0 Мбит/сек
Название фильма :
Дата кодирования : UTC 2013-03-02 21:48:03
Программа кодирования : mkvmerge v5.4.0 ('Piper') built on Mar 10 2012 13:34:39
Библиотека кодирования : libebml v1.2.3 + libmatroska v1.3.0
Видео
Идентификатор : 1
Формат : AVC
Формат/Информация : Advanced Video Codec
Профиль формата : [email protected]
Параметр CABAC формата : Да
Параметр ReFrames формата : 5 кадров
Идентификатор кодека : V_MPEG4/ISO/AVC
Продолжительность : 1 ч. 28 м.
Битрейт : 11,4 Мбит/сек
Ширина : 1920 пикселей
Высота : 782 пикселя
Соотношение сторон : 2,455
Частота кадров : 23,976 кадра/сек
Цветовое пространство : YUV
Субдискретизация насыщенности : 4:2:0
Битовая глубина : 8 бит
Тип развёртки : Прогрессивная
Бит/(Пиксели*Кадры) : 0.316
Размер потока : 6,85 Гбайт (85%)
Заголовок : Straight.As.2013.BluRay.1080p.x264
Библиотека кодирования : x264 core 129 r2245+704+36 8e61944 tMod+MixAQ [[email protected] X86_64]
Настройки программы : cabac=1 / ref=5 / deblock=1:-3:-3 / analyse=0x3:0x113 / me=umh / subme=11 / psy=1 / fade_compensate=0.00 / psy_rd=1.10:0.15 / mixed_ref=1 / me_range=48 / chroma_me=1 / trellis=2 / 8x8dct=1 / cqm=0 / deadzone=21,11 / fast_pskip=0 / chroma_qp_offset=-2 / threads=12 / lookahead_threads=2 / sliced_threads=0 / nr=0 / decimate=0 / interlaced=0 / bluray_compat=0 / constrained_intra=0 / fgo=5 / bframes=8 / b_pyramid=2 / b_adapt=2 / b_bias=0 / direct=3 / weightb=1 / open_gop=0 / weightp=2 / keyint=360 / keyint_min=1 / scenecut=40 / intra_refresh=0 / rc_lookahead=60 / rc=2pass / mbtree=0 / bitrate=11373 / ratetol=1.0 / qcomp=0.70 / qpmin=0 / qpmax=69 / qpstep=4 / cplxblur=20.0 / qblur=0.5 / vbv_maxrate=40000 / vbv_bufsize=30000 / nal_hrd=none / ip_ratio=1.40 / pb_ratio=1.19 / aq=3 / aq-strength=0.90 / aq-sensitivity=10.00 / aq-ifactor=1.00 / aq-pfactor=1.00 / aq-bfactor=1.00 / aq2=0
Язык : English
Default : Да
Forced : Нет
Аудио #1
Идентификатор : 2
Формат : AC-3
Формат/Информация : Audio Coding 3
Расширение режима : CM (complete main)
Идентификатор кодека : A_AC3
Продолжительность : 1 ч. 28 м.
Вид битрейта : Постоянный
Битрейт : 192 Кбит/сек
Каналы : 2 канала
Расположение каналов : Front: L R
Частота : 48,0 КГц
Битовая глубина : 16 бит
Метод сжатия : С потерями
Размер потока : 122 Мбайт (1%)
Заголовок : Russian MVO@ AC3 2.0 192 kbs НТВ+
Язык : Russian
Default : Да
Forced : Нет
Аудио #2
Идентификатор : 3
Формат : DTS
Формат/Информация : Digital Theater Systems
Идентификатор кодека : A_DTS
Продолжительность : 1 ч. 28 м.
Вид битрейта : Постоянный
Битрейт : 1510 Кбит/сек
Каналы : 6 каналов
Расположение каналов : Front: L C R, Side: L R, LFE
Частота : 48,0 КГц
Битовая глубина : 24 бит
Метод сжатия : С потерями
Размер потока : 957 Мбайт (12%)
Заголовок : ENG DTS 5.1 @ 1536 kbs
Язык : English
Default : Нет
Forced : Нет

Bitrate Viewer

Скриншоты:


Время раздачи: с 10:00 до 20:00 (GMT+2) - до 15 скачавшихНе забываем говорить

[Цитировать]



Показать сообщения:    

Текущее время: 06-Дек 08:52

Часовой пояс: UTC + 3


Вы не можете начинать темы
Вы не можете отвечать на сообщения
Вы не можете редактировать свои сообщения
Вы не можете удалять свои сообщения
Вы не можете голосовать в опросах
Вы не можете прикреплять файлы к сообщениям
Вы не можете скачивать файлы

!ВНИМАНИЕ!
Сайт не предоставляет электронные версии произведений, а занимается лишь коллекционированием и каталогизацией ссылок, присылаемых и публикуемых на форуме нашими читателями. Если вы являетесь правообладателем какого-либо представленного материала и не желаете, чтобы ссылка на него находилась в нашем каталоге, свяжитесь с нами, и мы незамедлительно удалим ее. Файлы для обмена на трекере предоставлены пользователями сайта, и администрация не несет ответственности за их содержание. Просьба не заливать файлы, защищенные авторскими правами, а также файлы нелегального содержания!