[ Сегодня идет свободное скачивание без начисления Download ]


Статистика раздачи
Нет
 
   
 
Top  
 
 
-Эквилибриум / Equilibrium (2002) BDRip- Русское название: Эквилибриум
Оригинальное название: Equilibrium
Год выпуска: 2002
Производство: США
Жанр: Фантастика, Боевик, Драма
Перевод: Дублированный, Многоголосый закадровый
Язык субтитров: Русский, Английский
Вид субтитров: Вшитые отключаемые
Режиссер: Курт Уиммер
Актеры: Кристиан Бэйл, Тэй Диггз, Энгус МакФадьен, Шон Бин, Эмили Уотсон, Уильям Фихтнер, Мэттью Харбор, Эмили Сьеверт, Шон Пертуи, Доминик Пёрселл
Описание фильма:
Действие происходит в будущем, когда люди лишены возможности выражать какие-то эмоции, потому, что они… запрещены. Это — та цена, которую человечество платит за устранение из своей жизни войны. Теперь книги, искусство и музыка находятся вне закона. А любое чувство — уже преступление, наказуемое смертью. Для проведения в жизнь существующего правила используется принудительное применение лекарства «прозиум». Правительственный агент Джон Престон борется с теми, кто нарушает правила. В один прекрасный момент он забывает принять очередную дозу лекарства и с ним происходит духовное превращение, что приводит его к противоречию с самим собой и с начальством.

Дата мировой премьеры: 6 декабря 2002
Дата российской премьеры: 27 февраля 2003, «West»
Продолжительность: 01:45:50
Качество видео: BDRip [720p]
Видеокодек: MPEG-4 AVC/H.264
Видео: 1280x720, ~9446 Кбит/с
Аудио 1: DTS, 6 ch, 755 Кбит/с (Дублированный, Русский R5)
Аудио 2: AC3, 6 ch, 448 Кбит/с (Многоголосый, Киномания)
Аудио 3: AC3, 6 ch, 640 Кбит/с (Оригинал, Английский)

MediaInfo:

Общее
Уникальный идентификатор : 187817416081400090629135778994305047211 (0x8D4C518DDC2365CF9F56801428771AAB)
Полное имя : Equilibrium.2002.BDRip.720p.mkv
Формат : Matroska
Версия формата : Version 2
Размер файла : 8,60 Гбайт
Продолжительность : 1 ч. 46 м.
Общий поток : 11,5 Мбит/сек
Название фильма : Equilibrium (2002) 720p BDRip x264 (1.78)
Дата кодирования : UTC 2012-01-07 10:16:28
Программа кодирования : mkvmerge v5.2.1 ('A Far Off Place') built on Jan 2 2012 23:21:10
Библиотека кодирования : libebml v1.2.3 + libmatroska v1.3.0
Видео
Идентификатор : 1
Формат : AVC
Формат/Информация : Advanced Video Codec
Профиль формата : High@L4.1
Параметр CABAC формата : Да
Параметр ReFrames формата : 9 кадров
Идентификатор кодека : V_MPEG4/ISO/AVC
Продолжительность : 1 ч. 46 м.
Битрейт : 9446 Кбит/сек
Ширина : 1280 пикселей
Высота : 720 пикселей
Соотношение сторон : 16:9
Частота кадров : 23,976 кадра/сек
Цветовое пространство : YUV
Субдискретизация насыщенности : 4:2:0
Битовая глубина : 8 бит
Тип развёртки : Прогрессивная
Бит/(Пиксели*Кадры) : 0.428
Размер потока : 7,05 Гбайт (82%)
Заголовок : Equilibrium (2002) 720p BDRip x264 (1.78)
Библиотека кодирования : x264 core 120 r2120 0c7dab9
Настройки программы : cabac=1 / ref=9 / deblock=1:-3:-3 / analyse=0x3:0x113 / me=tesa / subme=11 / psy=1 / psy_rd=1.15:0.00 / mixed_ref=1 / me_range=24 / chroma_me=1 / trellis=2 / 8x8dct=1 / cqm=0 / deadzone=21,11 / fast_pskip=0 / chroma_qp_offset=-2 / threads=12 / sliced_threads=0 / nr=0 / decimate=0 / interlaced=0 / bluray_compat=0 / constrained_intra=0 / bframes=10 / b_pyramid=2 / b_adapt=2 / b_bias=0 / direct=3 / weightb=1 / open_gop=0 / weightp=2 / keyint=250 / keyint_min=23 / scenecut=40 / intra_refresh=0 / rc=crf / mbtree=0 / crf=16.2 / qcomp=0.60 / qpmin=0 / qpmax=69 / qpstep=4 / ip_ratio=1.40 / pb_ratio=1.30 / aq=1:0.70 / zones=144253,153697,crf=30
Язык : Russian
Default : Да
Forced : Нет
Коэффициенты матрицы : BT.709-5, BT.1361, IEC 61966-2-4 709, SMPTE RP177
Аудио #1
Идентификатор : 2
Формат : DTS
Формат/Информация : Digital Theater Systems
Идентификатор кодека : A_DTS
Продолжительность : 1 ч. 46 м.
Вид битрейта : Постоянный
Битрейт : 755 Кбит/сек
Каналы : 6 каналов
Расположение каналов : Front: L C R, Side: L R, LFE
Частота : 48,0 КГц
Битовая глубина : 24 бит
Метод сжатия : С потерями
Размер потока : 577 Мбайт (7%)
Заголовок : Dub DTS 5.1@754
Язык : Russian
Default : Да
Forced : Нет
Аудио #2
Идентификатор : 3
Формат : AC-3
Формат/Информация : Audio Coding 3
Расширение режима : CM (complete main)
Идентификатор кодека : A_AC3
Продолжительность : 1 ч. 46 м.
Вид битрейта : Постоянный
Битрейт : 448 Кбит/сек
Каналы : 6 каналов
Расположение каналов : Front: L C R, Side: L R, LFE
Частота : 48,0 КГц
Битовая глубина : 16 бит
Метод сжатия : С потерями
Размер потока : 342 Мбайт (4%)
Заголовок : MVO AC3 5.1@448
Язык : Russian
Default : Нет
Forced : Нет
Аудио #3
Идентификатор : 4
Формат : AC-3
Формат/Информация : Audio Coding 3
Расширение режима : CM (complete main)
Идентификатор кодека : A_AC3
Продолжительность : 1 ч. 46 м.
Вид битрейта : Постоянный
Битрейт : 640 Кбит/сек
Каналы : 6 каналов
Расположение каналов : Front: L C R, Side: L R, LFE
Частота : 48,0 КГц
Битовая глубина : 16 бит
Метод сжатия : С потерями
Размер потока : 489 Мбайт (6%)
Заголовок : Eng AC3 5.1@640
Язык : English
Default : Нет
Forced : Нет
Текст #1
Идентификатор : 5
Формат : UTF-8
Идентификатор кодека : S_TEXT/UTF8
Идентификатор кодека/Информация : UTF-8 Plain Text
Заголовок : Rus full
Язык : Russian
Default : Нет
Forced : Нет
Текст #2
Идентификатор : 6
Формат : UTF-8
Идентификатор кодека : S_TEXT/UTF8
Идентификатор кодека/Информация : UTF-8 Plain Text
Заголовок : Eng full
Язык : English
Default : Нет
Forced : Нет
Меню
00:00:00.000 : ru:Человеческая бесчеловечность
00:07:33.161 : ru:Бесчувственное общество
00:11:42.285 : ru:Заблудший Клерик
00:15:02.443 : ru:Велика цена
00:22:07.326 : ru:Отсуствие дозы
00:25:27.234 : ru:Существование и цель
00:30:56.980 : ru:Пробуждение эмоций
00:36:50.156 : ru:Слезы и жалость
00:44:50.563 : ru:Сомневающийся отец?
00:47:25.678 : ru:Большая ошибка
00:56:29.011 : ru:"Он эмоциональный преступник"
01:02:55.230 : ru:Вопросы к Мэри
01:06:12.635 : ru:Контакт с Сопротивлением
01:14:44.939 : ru:Сожжение
01:23:32.591 : ru:Нечего скрывать
01:28:56.998 : ru:"Не без неожиданностей"
01:34:23.157 : ru:Расплата
01:40:16.552 : ru:Финальные титры

Знаете ли вы, что...

-- Около двухсот человек прошли пробы на роль Патриджа, и только, когда начались съемки, Лукас Фостер сумел убедить Шона Бина принять участие в фильме.
-- Удивительно, но сцена пистолетной перестрелки Джона Престона с офицерами заняла всего 30 минут съемочного времени.
-- Костюм Джона Престона был позаимствован из фильма с участием Брюса Ли «Кулак ярости».
-- Пистолеты, используемые клериками, носят название Beretta M93R. Точно такой же пистолет в свое время был использован на съемках «Робота-полицейского».
-- Дотошными статистиками в картине насчитано 236 трупов.
-- Престон добирается до жилища Виктории и обнаруживает там несметное количество грампластинок. Одну из них он решает прослушать. В фильме звучит фрагмент девятой симфонии Людвига Ван Бетховена.
-- В эпизоде с собакой был использован щенок бернского зенненхунда. Любопытно, что собачьи звуки, которые мы можем услышать в этом эпизоде (тявканье, учащенное дыхание, поскуливание) на самом деле издавал специально обученный актер-пародист.
-- При активном участии Курта Уиммера, режиссера и сценариста проекта, были внесены новые элементы в искусство единоборств. Никто ранее еще не снимал поединок на пистолетах в таком ракурсе.
-- Наркотик, используемый в фильме для отключения чувств, носит название «Прозиум». Это своеобразная комбинация двух препаратов «Прозак» и «Валиум», каждый из которых служит в повседневной жизни для снятия стресса.
-- Концепт-арт Либрии был навеян работами художника Хью Ферриса.
-- Партридж читает стихи Йетса.
-- Тетраграмматон — слово, использующееся в иудаизме как имя Бога.
-- Первоначально препарат Прозиум назывался «либриум» (с намеком на Либрию), но выяснилось, что это реально зарегистрированная торговая марка.
-- Во время конфискации картин камера выхватывает полотно с юной девушкой — это «Книга историй» Адольфа-Уильяма Богеро.
-- Курт Уиммер хотел, чтобы Престона сыграл Доминик Пурселл. Однако продюсеры не желали видеть в главной роли малоизвестного австралийского актера. Чтобы совсем не обижать Пурселла, ему дали небольшую роль в начале фильма.
-- В фильме показан глобус, расположение материков на котором сильно отличается от нашего мира.
Скриншоты:


Время раздачи: Обычно с 19:00 до 00:00

[Цитировать]



Показать сообщения:    

Текущее время: 09-Дек 03:02

Часовой пояс: UTC + 3


Вы не можете начинать темы
Вы не можете отвечать на сообщения
Вы не можете редактировать свои сообщения
Вы не можете удалять свои сообщения
Вы не можете голосовать в опросах
Вы не можете прикреплять файлы к сообщениям
Вы не можете скачивать файлы

!ВНИМАНИЕ!
Сайт не предоставляет электронные версии произведений, а занимается лишь коллекционированием и каталогизацией ссылок, присылаемых и публикуемых на форуме нашими читателями. Если вы являетесь правообладателем какого-либо представленного материала и не желаете, чтобы ссылка на него находилась в нашем каталоге, свяжитесь с нами, и мы незамедлительно удалим ее. Файлы для обмена на трекере предоставлены пользователями сайта, и администрация не несет ответственности за их содержание. Просьба не заливать файлы, защищенные авторскими правами, а также файлы нелегального содержания!