[ Сегодня идет свободное скачивание без начисления Download ]


Статистика раздачи
Нет
 
   
 
Top  
 
 
-Человек из ниоткуда / Ajeossi / The Man from Nowhere (2010) BDRip-
Русское название: Человек из ниоткуда
Оригинальное название: Ajeossi / The Man from Nowhere
Год выпуска: 2010
Страна: Корея Южная
Жанр: Боевик, Триллер, Криминал
Описание фильма:
Чха Тхэ Сик - скромный владелец ломбарда. Девочка Чон Соме его соседка и дочь матери-одиночки, которая работает в баре танцовщицей и не столько увлекается воспитанием ребенка, сколько ищет острых ощущений на свою и без того повидавшую виды, неудавшуюся жизнь. И вот однажды мать Соме вместе со своим парнем решает обокрасть наркокурьера, который регулярно появляется в заведении, где она выступает...
Режиссер: Ли Чжон Бом
Актеры: Вон Бин, Ким Сэ Рон, Тхэ-Хун Ким, Хи-Вон Ким, Ким Сон О, Танаёнг Вонгтракул, Со-Хи Хонг, Хё-Со Ким, Нам Кён
Продолжительность: 01:59:18
Перевод: Профессиональный (двухголосый закадровый), Авторский (одноголосый закадровый)
Язык субтитров: Русский, английский
Вид субтитров: Вшитые отключаемые- -Видеокодек: MPEG-4 AVC/H.264
Битрейт видео: ~13.0 Мбит/с
Размер кадра: 1920х816
Качество видео: BDRip 1080p
Контейнер: MKV
Аудиокодек: AC3 , DTS
Аудио #1: Русский ( AC3 / 5.1 / 48 kHz / 384 kbps ) - Профессиональный (двухголосый) - НТВ+
Аудио #2: Русский ( DTS / 5.1 / 48 kHz / 1536 kbps ) - Авторский (одноголосый) - Ю.Сербин
Аудио #3: Корейский ( DTS / 5.1 / 48 kHz / 1536 kbps )
-

MediaInfo

Общее
Уникальный идентификатор : 203891551682369152598765763163247628760 (0x996415A06EE16A7F97709424430C51D8)
Полное имя : Человек из ниоткуда.2010.BDRip.1080р..mkv
Формат : Matroska
Версия формата : Version 4 / Version 2
Размер файла : 13,7 Гбайт
Продолжительность : 1 ч. 59 м.
Общий поток : 16,4 Мбит/сек
Дата кодирования : UTC 2013-02-23 09:10:46
Программа кодирования : mkvmerge v6.0.0 ('Coming Up For Air') built on Jan 20 2013 09:52:00
Библиотека кодирования : libebml v1.3.0 + libmatroska v1.4.0
Видео
Идентификатор : 1
Формат : AVC
Формат/Информация : Advanced Video Codec
Профиль формата : [email protected]
Параметр CABAC формата : Да
Параметр ReFrames формата : 5 кадров
Идентификатор кодека : V_MPEG4/ISO/AVC
Продолжительность : 1 ч. 59 м.
Битрейт : 13,0 Мбит/сек
Ширина : 1920 пикселей
Высота : 816 пикселей
Соотношение сторон : 2,35:1
Режим частоты кадров : Постоянный
Частота кадров : 23,976 кадра/сек
Цветовое пространство : YUV
Субдискретизация насыщенности : 4:2:0
Битовая глубина : 8 бит
Тип развёртки : Прогрессивная
Бит/(Пиксели*Кадры) : 0.346
Размер потока : 10,6 Гбайт (77%)
Заголовок : Release for HDCLUB
Библиотека кодирования : x264 core 114 r1913 5fd3dce
Настройки программы : cabac=1 / ref=5 / deblock=1:-3:-3 / analyse=0x3:0x113 / me=tesa / subme=10 / psy=1 / psy_rd=0.80:0.00 / mixed_ref=1 / me_range=32 / chroma_me=1 / trellis=2 / 8x8dct=1 / cqm=0 / deadzone=21,11 / fast_pskip=0 / chroma_qp_offset=-2 / threads=12 / sliced_threads=0 / nr=0 / decimate=0 / interlaced=0 / constrained_intra=0 / bframes=6 / b_pyramid=2 / b_adapt=2 / b_bias=0 / direct=3 / weightb=1 / open_gop=0 / weightp=2 / keyint=250 / keyint_min=23 / scenecut=40 / intra_refresh=0 / rc_lookahead=40 / rc=2pass / mbtree=1 / bitrate=12999 / ratetol=1.0 / qcomp=0.60 / qpmin=10 / qpmax=51 / qpstep=4 / cplxblur=20.0 / qblur=0.5 / ip_ratio=1.40 / aq=1:0.70
Язык : Korean
Default : Нет
Forced : Нет
Аудио #1
Идентификатор : 2
Формат : AC-3
Формат/Информация : Audio Coding 3
Расширение режима : CM (complete main)
Параметр Endianness формата : Big
Идентификатор кодека : A_AC3
Продолжительность : 1 ч. 59 м.
Вид битрейта : Постоянный
Битрейт : 384 Кбит/сек
Каналы : 6 каналов
Расположение каналов : Front: L C R, Side: L R, LFE
Частота : 48,0 КГц
Битовая глубина : 16 бит
Метод сжатия : С потерями
Размер потока : 328 Мбайт (2%)
Заголовок : Профессиональный (двухголосый) - НТВ+
Язык : Russian
Default : Да
Forced : Нет
Аудио #2
Идентификатор : 3
Формат : DTS
Формат/Информация : Digital Theater Systems
Идентификатор кодека : A_DTS
Продолжительность : 1 ч. 59 м.
Вид битрейта : Постоянный
Битрейт : 1510 Кбит/сек
Каналы : 6 каналов
Расположение каналов : Front: L C R, Side: L R, LFE
Частота : 48,0 КГц
Битовая глубина : 24 бит
Метод сжатия : С потерями
Размер потока : 1,26 Гбайт (9%)
Заголовок : DTS 5.1 @ 1536 kbps - Одноголосый закадровый, Ю.Сербин
Язык : Russian
Default : Нет
Forced : Нет
Аудио #3
Идентификатор : 4
Формат : DTS
Формат/Информация : Digital Theater Systems
Идентификатор кодека : A_DTS
Продолжительность : 1 ч. 59 м.
Вид битрейта : Постоянный
Битрейт : 1510 Кбит/сек
Каналы : 6 каналов
Расположение каналов : Front: L C R, Side: L R, LFE
Частота : 48,0 КГц
Битовая глубина : 24 бит
Метод сжатия : С потерями
Задержка видео : 11 мс.
Размер потока : 1,26 Гбайт (9%)
Заголовок : DTS 5.1 @ 1536 kbps
Язык : Korean
Default : Нет
Forced : Нет
Текст #1
Идентификатор : 5
Формат : UTF-8
Идентификатор кодека : S_TEXT/UTF8
Идентификатор кодека/Информация : UTF-8 Plain Text
Язык : Russian
Default : Нет
Forced : Нет
Текст #2
Идентификатор : 6
Формат : UTF-8
Идентификатор кодека : S_TEXT/UTF8
Идентификатор кодека/Информация : UTF-8 Plain Text
Язык : English
Default : Нет
Forced : Нет
Меню
00:00:00.000 : en:00:00:00.000
00:05:23.823 : en:00:05:23.823
00:11:00.076 : en:00:11:00.076
00:14:44.217 : en:00:14:44.217
00:17:08.861 : en:00:17:08.861
00:20:38.320 : en:00:20:38.320
00:24:46.235 : en:00:24:46.235
00:30:34.458 : en:00:30:34.458
00:40:19.959 : en:00:40:19.959
00:44:19.448 : en:00:44:19.448
00:47:10.369 : en:00:47:10.369
00:54:33.437 : en:00:54:33.437
01:05:23.169 : en:01:05:23.169
01:10:09.664 : en:01:10:09.664
01:15:25.104 : en:01:15:25.104
01:22:45.502 : en:01:22:45.502
01:32:23.204 : en:01:32:23.204
01:35:13.124 : en:01:35:13.124
01:43:35.626 : en:01:43:35.626
01:50:24.368 : en:01:50:24.368
01:55:10.612 : en:01:55:10.612
-Скриншоты:




Время раздачи: с 10:00 до 23:00 ежедневно

[Цитировать]



Показать сообщения:    

Текущее время: 04-Дек 15:16

Часовой пояс: UTC + 3


Вы не можете начинать темы
Вы не можете отвечать на сообщения
Вы не можете редактировать свои сообщения
Вы не можете удалять свои сообщения
Вы не можете голосовать в опросах
Вы не можете прикреплять файлы к сообщениям
Вы не можете скачивать файлы

!ВНИМАНИЕ!
Сайт не предоставляет электронные версии произведений, а занимается лишь коллекционированием и каталогизацией ссылок, присылаемых и публикуемых на форуме нашими читателями. Если вы являетесь правообладателем какого-либо представленного материала и не желаете, чтобы ссылка на него находилась в нашем каталоге, свяжитесь с нами, и мы незамедлительно удалим ее. Файлы для обмена на трекере предоставлены пользователями сайта, и администрация не несет ответственности за их содержание. Просьба не заливать файлы, защищенные авторскими правами, а также файлы нелегального содержания!