[ Сегодня идет свободное скачивание без начисления Download ]


Статистика раздачи
Нет
 
   
 
 
 
-Битва экстрасенсов. 13 Сезон (2012) SATRip- Режиссер / Телекомпания: ТНТ
Год выпуска: 2012
Жанр: Реалити Шоу
Ведущий: Марат Башаров
Описание:
Такого не предвидел никто. Списки претендентов подавших заявки на участие в передачу «Битва экстрасенсов 13 сезон» занимают всего несколько десятков листочков. Все пришедшие на отбор верят в магическое число "чертовой дюжины" и всячески убеждают себя, что только им улыбнется фортуна, и они займут место в ТВ-шоу. Все пришедшие считают себя магами или экстрасенсами, и каждый пытается продемонстрировать то, на что он способен, в чём его сила и обойти своих конкурентов. Это большая премьера «Битва экстрасенсов 13 сезон» - самого мистического и магического сезона, который, люди суеверные, советовали вообще не начинать. Но мы не согласились с их доводами и сильно верим в подобные предсказания и приметы, поэтому и открываем наше захватывающее, непредсказуемое шоу.
13-й сезон ТВ-шоу начинается. Большое количество претендентов на участие прошли стандартные, начальные испытания: "Ширма", "Багажник" и "Мистер X". Какие незабываемые сюрпризы телезрителям готовит самый мистический 13-й сезон? Каждый новый сезон "Битва экстрасенсов" на телеканале ТНТ становится эпохальным событием, меняя прежнее представление, как зрителей, так и специальных экспертов, о границах и возможностях человека. Экстрасенсы будут находить людей, давно пропавших без вести, распутывать различного рода преступления, с которыми не смогли совладать правоохранительные органы, снимать, наложенные недобрыми людьми проклятия и предсказывать наше с Вами будущее.
13 участников проекта 13-го сезона - начали свою нелёгкую борьбу за признание людей, и звание лучшего из лучших экстрасенса страны. Маги, ясновидящие и экстрасенсы прошли первые нелёгкие испытания. Возможно ли по первым испытаниям уже сейчас утверждать, кто станет победителем?
Продолжительность: 22 вып по 00:48:23
Видеокодек: xvid
Битрейт видео: ~~1650 kb/s
Размер кадра: 704 x 528 / 720 x 544
Качество видео: SATRip
Аудиокодек: mp3
Битрейт аудио: 128 kb/s

Media Info

Формат : AVI
Формат/Информация : Audio Video Interleave
Размер файла : 602 Мбайт
Продолжительность : 47 м.
Общий поток : 1788 Кбит/сек
Библиотека кодирования : VirtualDub build 34807/release
Видео
Идентификатор : 0
Формат : MPEG-4 Visual
Параметр BVOP формата : 1
Параметр QPel формата : Нет
Параметр GMC формата : Без точки перехода
Параметр матрицы формата : Default (H.263)
Режим смешивания : Сжатый битовый поток
Идентификатор кодека : DX50
Идентификатор кодека/Подсказка : DivX 5
Продолжительность : 47 м.
Битрейт : 1650 Кбит/сек
Ширина : 704 пикселя
Высота : 528 пикселей
Соотношение сторон : 4:3
Частота кадров : 25,000 кадров/сек
Цветовое пространство : YUV
Субдискретизация насыщенности : 4:2:0
Битовая глубина : 8 бит
Тип развёртки : Прогрессивная
Метод сжатия : С потерями
Бит/(Пиксели*Кадры) : 0.178
Размер потока : 556 Мбайт (92%)
Библиотека кодирования : DivX 6.8.5 (UTC 2009-08-20)
Аудио
Идентификатор : 1
Формат : MPEG Audio
Версия формата : Version 1
Профиль формата : Layer 3
Режим : Joint stereo
Расширение режима : MS Stereo
Идентификатор кодека : 55
Идентификатор кодека/Подсказка : MP3
Продолжительность : 47 м.
Вид битрейта : Постоянный
Битрейт : 128 Кбит/сек
Каналы : 2 канала
Частота : 44,1 КГц
Метод сжатия : С потерями
Размер потока : 43,1 Мбайт (7%)
Выравнивание : Разделение по промежуткам
Продолжительность промежутка : 40 мс. (1,00 видеокадр)
Время предзагрузки промежутка : 500 мс.
Скриншоты:
Время раздачи: 24/7 по возможности

[Цитировать]



Показать сообщения:    

Текущее время: 09-Дек 08:50

Часовой пояс: UTC + 3


Вы не можете начинать темы
Вы не можете отвечать на сообщения
Вы не можете редактировать свои сообщения
Вы не можете удалять свои сообщения
Вы не можете голосовать в опросах
Вы не можете прикреплять файлы к сообщениям
Вы не можете скачивать файлы

!ВНИМАНИЕ!
Сайт не предоставляет электронные версии произведений, а занимается лишь коллекционированием и каталогизацией ссылок, присылаемых и публикуемых на форуме нашими читателями. Если вы являетесь правообладателем какого-либо представленного материала и не желаете, чтобы ссылка на него находилась в нашем каталоге, свяжитесь с нами, и мы незамедлительно удалим ее. Файлы для обмена на трекере предоставлены пользователями сайта, и администрация не несет ответственности за их содержание. Просьба не заливать файлы, защищенные авторскими правами, а также файлы нелегального содержания!