[ Сегодня идет свободное скачивание без начисления Download ]


Статистика раздачи
Нет
 
   
 
Top  
 
 
-Хранитель времени / Hugo (2011) BDRip- Русское название: Хранитель времени
Оригинальное название: Hugo
Год выпуска: 2011
Производство: Infinitum Nihil Production / Paramount Pictures
Страна: США
Жанр: Драма, детектив, приключения, семейный
Перевод: Дублированный
Режиссер: Мартин Скорсезе
Актеры: Аса Баттерфилд, Бен Кингсли, Саша Барон Коэн, Хлоя Грейс Морец, Рэй Уинстон, Эмили Мортимер, Кристофер Ли, Хелен МакКрори, Майкл Стулбарг, Фрэнсис де ла Тур
Описание фильма:
Приключения находчивого мальчика, который должен раскрыть секрет, оставленный его отцом, чтобы найти то место, которое сможет назвать своим домом.- -Продолжительность: 02:06:21
Качество видео: BDRip
Видеокодек: MPEG4_AVC / H.264
Битрейт видео: ~7834 kbps, Бит/(Пиксели*Кадры): 0.158
Размер кадра: 1920х1080
Аудио 1: AC3 5.1, 448 kbps [Русский]
Аудио 2: AC3 5.1, 640 kbps [Английский]
Аудио 3: AC3 5.1, 448 kbps [Украинский] - отдельным файлом
Аудио 4: AC3 5.1, 640 kbps [Французский] - отдельным файлом

Дата мировой премьеры: 10 октября 2011
Дата российской премьеры: 5 января 2012, «Централ Партнершип»
Дата выхода DVD / Blu-Ray релиза: 17 мая 2012, «Новый Диск»

MediaInfo...

Аудиодорожки...

Украинская
Полное имя : D:\Хранитель.времени-Hugo.(2011).1080p. BDRip.[3D]\Хранитель.времени-Hugo.(2011).1080p. BDRip.[3D].Ukr.ac3
Формат : Matroska
Версия формата : Version 2
Размер файла : 405 Мбайт
Продолжительность : 2 ч. 6 м.
Общий поток : 449 Кбит/сек
Дата кодирования : UTC 2012-02-25 13:42:13
Программа кодирования : mkvmerge v3.4.0 ('Rapunzel') сборка от May 15 2010 09:38:20
Библиотека кодирования : libebml v0.8.0 + libmatroska v0.9.0
Аудио
Идентификатор : 1
Формат : AC-3
Формат/Информация : Audio Coding 3
Расширение режима : CM (complete main)
Идентификатор кодека : A_AC3
Продолжительность : 2 ч. 6 м.
Вид битрейта : Постоянный
Битрейт : 448 Кбит/сек
Каналы : 6 каналов
Расположение каналов : Front: L C R, Side: L R, LFE
Частота : 48,0 КГц
Битовая глубина : 16 бит
Метод сжатия : С потерями
Размер потока : 405 Мбайт (100%)
Заголовок : Hugo.Ukr.ac3
Язык : Ukrainian
Французская
Полное имя : D:\Torrent_NNM\Хранитель.времени-Hugo.(2011).1080p. BDRip.[3D]\Хранитель.времени-Hugo.(2011).1080p. BDRip.[3D].Fre.ac3
Формат : Matroska
Версия формата : Version 2
Размер файла : 578 Мбайт
Продолжительность : 2 ч. 6 м.
Общий поток : 640 Кбит/сек
Дата кодирования : UTC 2012-02-25 13:45:58
Программа кодирования : mkvmerge v3.4.0 ('Rapunzel') сборка от May 15 2010 09:38:20
Библиотека кодирования : libebml v0.8.0 + libmatroska v0.9.0
Аудио
Идентификатор : 1
Формат : AC-3
Формат/Информация : Audio Coding 3
Расширение режима : CM (complete main)
Идентификатор кодека : A_AC3
Продолжительность : 2 ч. 6 м.
Вид битрейта : Постоянный
Битрейт : 640 Кбит/сек
Каналы : 6 каналов
Расположение каналов : Front: L C R, Side: L R, LFE
Частота : 48,0 КГц
Битовая глубина : 16 бит
Метод сжатия : С потерями
Размер потока : 578 Мбайт (100%)
Заголовок : audio.fre.ac3
Язык : French
Полное имя : D:\Хранитель.времени-Hugo.(2011).1080p. BDRip.[3D].mkv
Формат : Matroska
Версия формата : Version 2
Размер файла : 8,03 Гбайт
Продолжительность : 2 ч. 6 м.
Общий поток : 9103 Кбит/сек
Название фильма : Hugo (3D).1080p.mkv
Дата кодирования : UTC 2012-02-25 14:33:11
Программа кодирования : mkvmerge v3.4.0 ('Rapunzel') сборка от May 15 2010 09:38:20
Библиотека кодирования : libebml v0.8.0 + libmatroska v0.9.0
Видео
Идентификатор : 1
Формат : AVC
Формат/Информация : Advanced Video Codec
Профиль формата : High@L4.1
Параметр CABAC формата : Да
Параметр ReFrames формата : 4 кадра
Параметры GOP формата : M=1, N=24
Идентификатор кодека : V_MPEG4/ISO/AVC
Продолжительность : 2 ч. 6 м.
Битрейт : 7834 Кбит/сек
Ширина : 1920 пикс.
Высота : 1080 пикс.
Соотношение сторон : 16:9
Частота кадров : 23,976 кадр/сек
Цветовое пространство : YUV
Подвыборка цветности : 4:2:0
Битовая глубина : 8 бит
Тип развёртки : Прогрессивная
Бит/(Пиксели*Кадры) : 0.158
Размер потока : 6,91 Гбайт (86%)
Заголовок : Hugo.film.mkv
Библиотека кодирования : x264 core 120 r2164 da19765
Настройки программы : cabac=1 / ref=4 / deblock=1:-2:-2 / analyse=0x3:0x113 / me=umh / subme=7 / psy=1 / psy_rd=1.00:0.15 / mixed_ref=1 / me_range=16 / chroma_me=1 / trellis=2 / 8x8dct=1 / cqm=0 / deadzone=21,11 / fast_pskip=1 / chroma_qp_offset=-3 / threads=6 / sliced_threads=0 / nr=0 / decimate=1 / interlaced=0 / bluray_compat=0 / constrained_intra=0 / bframes=6 / b_pyramid=0 / b_adapt=2 / b_bias=0 / direct=3 / weightb=1 / open_gop=0 / weightp=2 / keyint=250 / keyint_min=23 / scenecut=40 / intra_refresh=0 / rc_lookahead=40 / rc=crf / mbtree=1 / crf=18.0 / qcomp=0.60 / qpmin=10 / qpmax=69 / qpstep=4 / ip_ratio=1.40 / aq=1:1.00
Аудио #1
Идентификатор : 2
Формат : AC-3
Формат/Информация : Audio Coding 3
Расширение режима : CM (complete main)
Идентификатор кодека : A_AC3
Продолжительность : 2 ч. 6 м.
Вид битрейта : Постоянный
Битрейт : 448 Кбит/сек
Каналы : 6 каналов
Расположение каналов : Front: L C R, Side: L R, LFE
Частота : 48,0 КГц
Битовая глубина : 16 бит
Метод сжатия : С потерями
Размер потока : 405 Мбайт (5%)
Заголовок : audio.rus
Язык : Russian
Аудио #2
Идентификатор : 3
Формат : AC-3
Формат/Информация : Audio Coding 3
Расширение режима : CM (complete main)
Идентификатор кодека : A_AC3
Продолжительность : 2 ч. 6 м.
Вид битрейта : Постоянный
Битрейт : 640 Кбит/сек
Каналы : 6 каналов
Расположение каналов : Front: L C R, Side: L R, LFE
Частота : 48,0 КГц
Битовая глубина : 16 бит
Метод сжатия : С потерями
Размер потока : 578 Мбайт (7%)
Заголовок : audio.eng
Язык : English
Меню
00:00:00.000 : :00:00:00.000
00:09:35.533 : :00:09:35.533
00:17:20.665 : :00:17:20.665
00:23:32.911 : :00:23:32.911
00:30:34.541 : :00:30:34.541
00:38:26.262 : :00:38:26.262
00:47:36.270 : :00:47:36.270
00:55:37.543 : :00:55:37.543
01:03:43.695 : :01:03:43.695
01:12:46.862 : :01:12:46.862
01:19:59.169 : :01:19:59.169
01:27:10.100 : :01:27:10.100
01:33:03.495 : :01:33:03.495
01:42:41.280 : :01:42:41.280
01:53:47.779 : :01:53:47.779
01:59:58.441 : :01:59:58.441
Скриншоты:


Время раздачи: 24/7 (до 10 скачавших)


Последний раз редактировалось: JOKER (2013-03-03 23:41), всего редактировалось 2 раз(а)

[Цитировать]

JOKER ты самый крутой разговора нет, но ладно фиг с ним с МедиаИнфо, поправь вот здесь Страна:_[США] косячек маленький!

[Цитировать]



Показать сообщения:    

Текущее время: 23-Июн 09:36

Часовой пояс: UTC + 6


Вы не можете начинать темы
Вы не можете отвечать на сообщения
Вы не можете редактировать свои сообщения
Вы не можете удалять свои сообщения
Вы не можете голосовать в опросах
Вы не можете прикреплять файлы к сообщениям
Вы не можете скачивать файлы

!ВНИМАНИЕ!
Сайт не предоставляет электронные версии произведений, а занимается лишь коллекционированием и каталогизацией ссылок, присылаемых и публикуемых на форуме нашими читателями. Если вы являетесь правообладателем какого-либо представленного материала и не желаете, чтобы ссылка на него находилась в нашем каталоге, свяжитесь с нами, и мы незамедлительно удалим ее. Файлы для обмена на трекере предоставлены пользователями сайта, и администрация не несет ответственности за их содержание. Просьба не заливать файлы, защищенные авторскими правами, а также файлы нелегального содержания!